Death.Note.S01.540p-Hi10p.BluRay.FLAC2.0.x264-CTR (English Dubbed Dual Audio)


Category: Anime - English-translated
Uploaded by:
Website Link: N/A
Hash: 2649944631073FDF1310563D38641BC08A2156B2
Size: 30.2 GiB
Date: 10/11/2017, 2:01:37 AM UTC+0
Seeders: 0
Leechers: 11
Completed: 0
Last scraped: 5/5/2019, 2:09:36 AM UTC+0

Description

                    <p><img src="https://i.gyazo.com/f0e83ac7676805c7fe33c1b9c6cff31a.png"/><br/>

Release Thread | CTR Release Index



~anyone want a potato chip?~









Video Track: 540p-Hi10p R1 / R2 BD Hybrid (Yellow-Flash)



Audio Track 1 (Default): English 2.0 AAC | 2.0 FLAC (PanicPaintbrush)

Audio Track 2: Japanese 2.0 AAC | 2.0 FLAC (PanicPaintbrush)

Audio Track 3: English Commentary 2.0 AAC | 2.0 FLAC (PanicPaintbrush) - Episodes 1, 7, 11, 14, 17, 23, 25, 30, 37



Subtitle Track 1 (Default): English Signs (.ASS) (Redc4t)

Subtitle Track 2: English Dialogue (R1 base) (.ASS) (Redc4t)

SUbtitle Track 3: English Dialogue (fansub) (.ASS) (TSR)



Chapters



-----



Yellow-Flash's new V2 encode which is a hybrid of the R1 and R2 BDs. Subs from Redc4t (R1 based) and TSR (fansub). Audio from PanicPaintbrush, with an optional AAC set for people who don't want their audio to be 1.5x their video. Special thanks to SRLS for helping with the audio sync on this release, and to SCY for help with subtitle restyling to fix the problems with TSR's track.



Some translator notes were left in the Signs track where I felt it appropriate for English viewers. Subtitle tracks were both untouched. This was an ordered chapter[/u] removal project, so if any video issues crop up please let me know immediately. This one looks like it went through clean though.



Media Info

Spoiler



General

Unique ID : 184664252178801618426153972675786244219 (0x8AED0A922BF3E5EE82F191DA4103007B)

Complete name : S:\Incoming~animework\Death.Note.S01.540p-Hi10p.BluRay.FLAC2.0.x264-CTR\Death.Note.S01E01.540p-Hi10p.BluRay.FLAC2.0.x264-CTR.[97A71D3E].mkv

Format : Matroska

Format version : Version 4 / Version 2

File size : 975 MiB

Duration : 22 min 32 s

Overall bit rate mode : Variable

Overall bit rate : 6 050 kb/s

Movie name : Death Note OP01_1

Encoded date : UTC 2017-10-10 20:47:32

Writing application : mkvmerge v9.2.0 ('Photograph') 64bit

Writing library : libebml v1.3.3 + libmatroska v1.4.4

Attachments : Cabin-Bold.ttf / 11S01 Black Tuesday.ttf / 8bitoperator.ttf / A-OTF Kyoukasho ICA Pro.ttf / A-OTF-CapieNStd-DeBold.otf / A-OTF-CapieNStd-Medium.otf / A831-Roman-Regular.ttf / Adelon-DemiBold.TTF / agrounded-book.ttf / Alberta Regular.ttf / ALBeRtus85W.TTF / amerigo-bt-bold.ttf / AMIRA-SEMIBOLD.OTF / annifont.ttf / Another.ttf / APJFK-AnoHana.ttf / ArtificeSSK.ttf / AUTO3-BOLDLF.TTF / AvantGardeMdITCTTBold.ttf / AveriaSerif-Bold.ttf / Babylon 27.ttf / Baldo.otf / BellGothicStd-Black.otf / Berlinsans-Roman (NEUE MAINFONT!!!).ttf / Big Bimbo NC.ttf / BITSTREAM ARRUS BOLD BT.TTF / brook23.ttf / BuxtonSketch.ttf / Cabin-Bold.ttf / Cabin-BoldItalic.ttf / calibri.ttf / calibrib.ttf / CooperBlackStd.otf / daniel.ttf / Deathnote_Font_by_deathNote_club.ttf / deathrattlebb_reg.ttf / DEATH_FONT.TTF / Dominican.ttf / FONTIN-BOLD.TTF / FONTIN-REGULAR.TTF / Fontin_Sans_B.otf / Formal_436_BT.ttf / gishabd.ttf / LTYPEB.TTF / Magario.ttf / Marker Felt.ttf / OffensiveBold.ttf / Overdrive Sunset.otf / PATRICK.TTF / plantc.ttf / Qlassik-Medium.ttf / Sachiko.ttf / sand.ttf / sapirsans.ttf / SilkRoad.ttf / smudger_54151.TTF / Squarea Regular.ttf / upcjb.ttf / VCR_OSD_MONO_1.001.ttf



Video

ID : 1

Format : AVC

Format/Info : Advanced Video Codec

Format profile : High [email protected]

Format settings, CABAC : Yes

Format settings, ReFrames : 16 frames

Codec ID : V_MPEG4/ISO/AVC

Duration : 22 min 32 s

Bit rate : 2 085 kb/s

Width : 960 pixels

Height : 540 pixels

Display aspect ratio : 16:9

Frame rate mode : Constant

Frame rate : 23.976 (24000/1001) FPS

Color space : YUV

Chroma subsampling : 4:2:0

Bit depth : 10 bits

Scan type : Progressive

Bits/(Pixel*Frame) : 0.168

Stream size : 336 MiB (34%)

Title : [Yellow-Flash]

Writing library : x264 core 152 r2851kMod ba24899

Encoding settings : cabac=1 / ref=16 / deblock=1:-1:-1 / analyse=0x3:0x133 / me=umh / subme=10 / psy=1 / fade_compensate=0.00 / psy_rd=1.00:0.00 / mixed_ref=1 / me_range=24 / chroma_me=1 / trellis=2 / 8x8dct=1 / cqm=0 / deadzone=21,11 / fast_pskip=1 / chroma_qp_offset=-2 / threads=12 / lookahead_threads=2 / sliced_threads=0 / nr=0 / decimate=1 / interlaced=0 / bluray_compat=0 / constrained_intra=0 / bframes=8 / b_pyramid=2 / b_adapt=2 / b_bias=0 / direct=3 / weightb=1 / open_gop=0 / weightp=2 / keyint=250 / keyint_min=23 / scenecut=40 / intra_refresh=0 / rc_lookahead=60 / rc=crf / mbtree=1 / crf=13.0000 / qcomp=0.60 / qpmin=0 / qpmax=81 / qpstep=4 / ip_ratio=1.40 / aq=1:0.90

Language : English

Default : Yes

Forced : No

Color range : Limited

Matrix coefficients : BT.709



Audio #1

ID : 2

Format : FLAC

Format/Info : Free Lossless Audio Codec

Codec ID : A_FLAC

Duration : 22 min 31 s

Bit rate mode : Variable

Bit rate : 1 308 kb/s

Channel(s) : 2 channels

Channel positions : Front: L R

Sampling rate : 48.0 kHz

Frame rate : 11.719 FPS (4096 spf)

Bit depth : 24 bits

Stream size : 211 MiB (22%)

Title : FLAC 2.0 [PPb]

Writing library : libFLAC 1.3.0 (UTC 2013-05-26)

Language : English

Default : Yes

Forced : No



Audio #2

ID : 3

Format : FLAC

Format/Info : Free Lossless Audio Codec

Codec ID : A_FLAC

Duration : 22 min 31 s

Bit rate mode : Variable

Bit rate : 1 355 kb/s

Channel(s) : 2 channels

Channel positions : Front: L R

Sampling rate : 48.0 kHz

Frame rate : 11.719 FPS (4096 spf)

Bit depth : 24 bits

Stream size : 218 MiB (22%)

Title : FLAC 2.0 [PPb]

Writing library : libFLAC 1.3.0 (UTC 2013-05-26)

Language : Japanese

Default : No

Forced : No



Audio #3

ID : 4

Format : FLAC

Format/Info : Free Lossless Audio Codec

Codec ID : A_FLAC

Duration : 22 min 31 s

Bit rate mode : Variable

Bit rate : 1 265 kb/s

Channel(s) : 2 channels

Channel positions : Front: L R

Sampling rate : 48.0 kHz

Frame rate : 11.719 FPS (4096 spf)

Bit depth : 24 bits

Stream size : 204 MiB (21%)

Title : Commentary - FLAC 2.0 [PPb]

Writing library : libFLAC 1.3.0 (UTC 2013-05-26)

Language : English

Default : No

Forced : No



Text #1

ID : 5

Format : ASS

Codec ID : S_TEXT/ASS

Codec ID/Info : Advanced Sub Station Alpha

Duration : 22 min 24 s

Bit rate : 61 b/s

Count of elements : 101

Compression mode : Lossless

Stream size : 10.1 KiB (0%)

Title : Signs [Redc4t]

Language : English

Default : Yes

Forced : Yes



Text #2

ID : 6

Format : ASS

Codec ID : S_TEXT/ASS

Codec ID/Info : Advanced Sub Station Alpha

Duration : 22 min 24 s

Bit rate : 197 b/s

Count of elements : 425

Compression mode : Lossless

Stream size : 32.5 KiB (0%)

Title : Subtitles [Redc4t]

Language : Japanese

Default : No

Forced : No



Text #3

ID : 7

Format : ASS

Codec ID : S_TEXT/ASS

Codec ID/Info : Advanced Sub Station Alpha

Duration : 22 min 24 s

Bit rate : 203 b/s

Count of elements : 392

Compression mode : Lossless

Stream size : 33.4 KiB (0%)

Title : Subtitles [TSR]

Language : Japanese

Default : No

Forced : No



Menu

00:00:00.000 : en:Opening

00:01:21.039 : en:Main

00:21:21.197 : en:Ending







CTR Releases: Collecting the best available sources around the internet and packing them up so you don't have to. My releases cater specifically to English audio viewers, though Japanese viewers are of course welcome. More details can be found on the individual release threads or at my index on Kametsu.



Enjoy.



-ctr

                 <br/>Scraped from: <a href="https://anidex.info/torrent/84166" rel="nofollow">https://anidex.info/torrent/84166</a>

Comments

No user comments have been posted.

Submit a comment as Anonymous

Markdown can be used in comments.