超入門! 落語 THE MOVIE / Chou Nyuumon! Rakugo THE MOVIE [TV x264 AAC]


Category: Live Action - Raw
Uploaded by: れんちょん
Website Link: N/A
Hash: BFD7868BD7BF8969CA555446C4529720DCF435C1
Size: 5.5 GiB
Date: 9/1/2017, 0:00:00 AM UTC+0
Seeders: 2
Leechers: 1
Completed: 14
Last scraped: 7/9/2019, 0:50:24 PM UTC+0

Description

Batch of the single torrents floating around, filenames slightly altered for sorting/clarity.

These episodes seem to not be uploaded yet: * 春SP (2017年5月2日) * 夏SP 第一夜 (2017年8月14日) * 夏SP 第二夜 (2017年8月15日)

超入門!落語 THE MOVIE シーズン2 starts in October, 10月5日(木)夜10時

media info

``` General Complete name : Z:\超入門! 落語 THE MOVIE[NHK] 超入門! 落語 THE MOVIE パイロット版1「元犬」「紙入れ」 (2017.01.02).mp4 Format : MPEG-4 Format profile : Base Media Codec ID : isom File size : 436 MiB Duration : 24mn 59s Overall bit rate mode : Variable Overall bit rate : 2 439 Kbps Movie name : Rakugo the Movie #-2 Recorded date : 0 Tagged date : UTC 2017-01-01 20:53:04 Writing application : Lavf56.36.100 Cover : Yes Comment : MAX2nd

Video ID : 1 Format : AVC Format/Info : Advanced Video Codec Format profile : Baseline@L1.3 Format settings, CABAC : No Format settings, ReFrames : 2 frames Codec ID : avc1 Codec ID/Info : Advanced Video Coding Duration : 24mn 59s Bit rate : 2 300 Kbps Width : 1 280 pixels Height : 960 pixels Display aspect ratio : 16:9 Frame rate mode : Constant Frame rate : 29.970 fps Color space : YUV Chroma subsampling : 4:2:0 Bit depth : 8 bits Scan type : Progressive Bits/(Pixel*Frame) : 0.062 Stream size : 411 MiB (94%) Writing library : x264 core 148 r2579 73ae2d1 Encoding settings : cabac=0 / ref=2 / deblock=1:0:0 / analyse=0x1:0x111 / me=umh / subme=6 / psy=1 / psy_rd=1.00:0.00 / mixed_ref=1 / me_range=16 / chroma_me=1 / trellis=0 / 8x8dct=0 / cqm=0 / deadzone=21,11 / fast_pskip=1 / chroma_qp_offset=-2 / threads=12 / lookahead_threads=2 / sliced_threads=0 / nr=0 / decimate=1 / interlaced=0 / bluray_compat=0 / constrained_intra=0 / bframes=0 / weightp=0 / keyint=250 / keyint_min=25 / scenecut=40 / intra_refresh=0 / rc_lookahead=40 / rc=2pass / mbtree=1 / bitrate=2300 / ratetol=1.0 / qcomp=0.60 / qpmin=0 / qpmax=69 / qpstep=4 / cplxblur=20.0 / qblur=0.5 / ip_ratio=1.40 / aq=1:1.00

Audio ID : 2 Format : AAC Format/Info : Advanced Audio Codec Format profile : LC Codec ID : 40 Duration : 24mn 59s Bit rate mode : Variable Bit rate : 128 Kbps Maximum bit rate : 235 Kbps Channel(s) : 2 channels Channel positions : Front: L R Sampling rate : 48.0 KHz Compression mode : Lossy Stream size : 22.9 MiB (5%) ```
Scraped from: https://nyaa.si/view/954867

Comments

No user comments have been posted.