Support Pantsu - Get your sticker today!

Wolfs.Rain.S01.576p.DVDRip.FLAC5.1.x264-CTR (English Dubbed Dual Audio)


Category:Anime - English-translated
Date:2017-07-17T21:37:32Z
Uploaded by:Catar Seeders:0
Website Link:N/A Leechers:0
Hash:AB541BC705057D77CDCD5A33CB6CDCD109AD9A5A Completed:0
Size:18.8 GiB Last scraped: 0001-01-01T00:00:00Z

Description



Release Thread | CTR Release Index



~definitely not werewolves~









Video Track: 576p DVD (NP-Complete)



Audio Track 1 (Default): English 5.1 FLAC (Etzimal)

Audio Track 2: Japanese 2.0 FLAC  (Etzimal)



Subtitle Track 1 (Default): English Signs (.ASS) (NP-Complete)

Subtitle Track 2: English Dialogue (.ASS) (NP-Complete)



Chapters



-----



For this release, I've painstakingly unlinked NP-Complete's original release, which originally used ordered chapters. Unlinking required a minor bit of reconstruction on episodes 3, 6, 8, 9, 10, 14, 15, 16, and 17. I believe I've pulled it off losslessly (thanks to Baal for help figuring this out). The Blurays in this case were an upscale performed by Funimation, and only released in the US. I've taken the lossless audio from both the Japanese and English tracks, supplied by our favorite Etzimal (who - no matter how cute he might be - needs to stop using MEGA to send me files, dear god please). These have been resynced to NPC's unlinked set, and in addition I've retimed NPC's subtitles and signs slightly as they were off just a tad. (Most noticeable on the end episode title card, it was off by a frame or two).



Enjoy.



-----



Media Info

Spoiler



General

Unique ID : 218140577469892754885337234006490723930 (0xA41C58D6888913B09DC3FA0A6F03B65A)

Complete name : S:\Incoming~animework\Wolfs.Rain.S01.576p.DVDRip.FLAC5.1.x264-CTR\Wolfs.Rain.S01E01.576p.DVDRip.FLAC5.1.x264-CTR.[4B968541].mkv

Format : Matroska

Format version : Version 4 / Version 2

File size : 672 MiB

Duration : 23 min 21 s

Overall bit rate mode : Variable

Overall bit rate : 4 022 kb/s

Encoded date : UTC 2017-05-27 20:21:52

Writing application : mkvmerge v9.2.0 ('Photograph') 64bit

Writing library : libebml v1.3.3 + libmatroska v1.4.4

Attachments : BoltonTitling.ttf / ClearfaceGothicLTStd-Roman.otf



Video

ID : 1

Format : AVC

Format/Info : Advanced Video Codec

Format profile : High@L4

Format settings, CABAC : Yes

Format settings, ReFrames : 16 frames

Codec ID : V_MPEG4/ISO/AVC

Duration : 23 min 20 s

Bit rate : 1 914 kb/s

Width : 704 pixels

Height : 576 pixels

Display aspect ratio : 4:3

Original display aspect ratio : 1.222

Frame rate mode : Constant

Frame rate : 23.976 (23976/1000) FPS

Original frame rate : 23.976 (24000/1001) FPS

Color space : YUV

Chroma subsampling : 4:2:0

Bit depth : 8 bits

Scan type : Progressive

Bits/(Pixel*Frame) : 0.197

Stream size : 320 MiB (48%)

Title : [NP-Complete]

Writing library : x264 core 80 r1376kMod 3feaec2

Encoding settings : cabac=1 / ref=16 / deblock=1:0:0 / analyse=0x3:0x133 / me=umh / subme=9 / psy=1 / psy_rd=1.0:0.0 / mixed_ref=1 / me_range=32 / chroma_me=1 / trellis=0 / 8x8dct=1 / cqm=0 / deadzone=14,8 / fast_pskip=0 / chroma_qp_offset=-2 / threads=6 / sliced_threads=0 / nr=0 / decimate=0 / mbaff=0 / constrained_intra=0 / bframes=8 / b_pyramid=2 / b_adapt=2 / b_bias=0 / direct=3 / wpredb=1 / wpredp=2 / keyint=250 / keyint_min=25 / scenecut=40 / rc=crf / mbtree=0 / crf=16.0000 / qcomp=0.60 / qpmin=10 / qpmax=51 / qpstep=4 / ip_ratio=1.40 / pb_ratio=1.30 / aq=4:1.00

Language : Japanese

Default : Yes

Forced : No



Audio #1

ID : 2

Format : FLAC

Format/Info : Free Lossless Audio Codec

Codec ID : A_FLAC

Duration : 23 min 21 s

Bit rate mode : Variable

Bit rate : 1 471 kb/s

Channel(s) : 6 channels

Channel positions : Front: L C R, Side: L R, LFE

Sampling rate : 48.0 kHz

Frame rate : 11.719 FPS (4096 spf)

Bit depth : 16 bits

Delay relative to video : 73 ms

Stream size : 246 MiB (37%)

Title : FLAC 5.1 [Etzimal]

Writing library : libFLAC 1.2.1 (UTC 2007-09-17)

Language : English

Default : Yes

Forced : No



Audio #2

ID : 3

Format : FLAC

Format/Info : Free Lossless Audio Codec

Codec ID : A_FLAC

Duration : 23 min 21 s

Bit rate mode : Variable

Bit rate : 635 kb/s

Channel(s) : 2 channels

Channel positions : Front: L R

Sampling rate : 48.0 kHz

Frame rate : 11.719 FPS (4096 spf)

Bit depth : 16 bits

Delay relative to video : 73 ms

Stream size : 106 MiB (16%)

Title : FLAC 2.0 [Etzimal]

Writing library : libFLAC 1.2.1 (UTC 2007-09-17)

Language : Japanese

Default : No

Forced : No



Text #1

ID : 4

Format : ASS

Codec ID : S_TEXT/ASS

Codec ID/Info : Advanced Sub Station Alpha

Duration : 1 min 38 s

Bit rate : 11 b/s

Count of elements : 3

Compression mode : Lossless

Stream size : 147 Bytes (0%)

Title : Signs [NPC]

Language : English

Default : Yes

Forced : No



Text #2

ID : 5

Format : ASS

Codec ID : S_TEXT/ASS

Codec ID/Info : Advanced Sub Station Alpha

Duration : 23 min 15 s

Bit rate : 77 b/s

Count of elements : 177

Compression mode : Lossless

Stream size : 13.2 KiB (0%)

Title : Subtitles [NPC]

Default : No

Forced : No



Menu

00:00:00.000 : en:Prologue

00:03:09.940 : en:Opening

00:04:39.782 : en:Episode

00:21:42.137 : en:Ending

00:23:05.136 : en:Preview





CTR Releases: Collecting the best available sources around the internet and packing them up so you don't have to. My releases cater specifically to English audio viewers, though Japanese viewers are of course welcome. More details can be found on the individual release threads or at my index on Kametsu.



Enjoy.



-ctr

Comments

Submit a comment as Anonymous

Captcha