[60FPS] AOA (Ace of Angels) - Good Luck (1280x720 x264 FLAC) +Trap Remix


Category: Live Action - Raw
Uploaded by: れんちょん
Website Link: N/A
Hash: 550822E17DD34C951122550A96134696502FED2F
Size: 881.0 MiB
Date: 4/30/2017, 0:04:00 PM UTC+0
Seeders: 1
Leechers: 1
Completed: 1
Last scraped: 7/8/2019, 0:40:11 AM UTC+0

Description

Mediainfo:



General
Unique ID : 179200863353601277970212825168464787666 (0x86D0D4B4810F5076ABBEB5B7BAA338D2)
Complete name : C:\Users\UHD\Videos\Music Video Remux\K-Pop\Master\Interpolation\AOA - Good Luck .mkv
Format : Matroska
Format version : Version 4 / Version 2
File size : 881 MiB
Duration : 4 min 0 s
Overall bit rate mode : Variable
Overall bit rate : 30.7 Mb/s
Encoded date : UTC 2017-04-24 06:52:12
Writing application : mkvmerge v10.0.0 ('To Drown In You') 32bit
Writing library : libebml v1.3.4 + libmatroska v1.4.5

Video
ID : 1
Format : AVC
Format/Info : Advanced Video Codec
Format profile : Baseline@L4.1
Format settings, CABAC : No
Format settings, ReFrames : 1 frame
Codec ID : V_MPEG4/ISO/AVC
Duration : 4 min 0 s
Bit rate : 28.7 Mb/s
Width : 1 280 pixels
Height : 720 pixels
Display aspect ratio : 16:9
Frame rate mode : Constant
Frame rate : 59.940 (59940/1000) FPS
Color space : YUV
Chroma subsampling : 4:2:0
Bit depth : 8 bits
Scan type : Progressive
Bits/(Pixel*Frame) : 0.519
Stream size : 822 MiB (93%)
Title : 60FPS
Writing library : x264 core 148 r2705 3f5ed56
Encoding settings : cabac=0 / ref=1 / deblock=1:0:0 / analyse=0x1:0x111 / me=hex / subme=5 / psy=1 / psy_rd=1.00:0.00 / mixed_ref=0 / me_range=16 / chroma_me=1 / trellis=0 / 8x8dct=0 / cqm=0 / deadzone=21,11 / fast_pskip=0 / chroma_qp_offset=0 / threads=3 / lookahead_threads=1 / sliced_threads=0 / nr=0 / decimate=1 / interlaced=0 / bluray_compat=0 / constrained_intra=0 / bframes=0 / weightp=0 / keyint=250 / keyint_min=25 / scenecut=40 / intra_refresh=0 / rc_lookahead=40 / rc=cbr / mbtree=0 / bitrate=28673 / ratetol=2.0 / qcomp=0.50 / qpmin=0 / qpmax=69 / qpstep=4 / vbv_maxrate=28673 / vbv_bufsize=62500 / nal_hrd=none / filler=0 / ip_ratio=1.40 / aq=0
Language : Korean
Default : Yes
Forced : No
Color range : Limited
Matrix coefficients : BT.709

Audio #1
ID : 2
Format : FLAC
Format/Info : Free Lossless Audio Codec
Codec ID : A_FLAC
Duration : 4 min 0 s
Bit rate mode : Variable
Bit rate : 948 kb/s
Channel(s) : 2 channels
Channel positions : Front: L R
Sampling rate : 44.1 kHz
Frame rate : 38.282 FPS (1152 spf)
Bit depth : 16 bits
Stream size : 27.2 MiB (3%)
Title : Natsu Fuji Ver.
Writing library : libFLAC 1.0.25 (UTC 2007-09-17)
Language : Korean
Default : Yes
Forced : No

Audio #2
ID : 3
Format : FLAC
Format/Info : Free Lossless Audio Codec
Codec ID : A_FLAC
Duration : 4 min 0 s
Bit rate mode : Variable
Bit rate : 1 088 kb/s
Channel(s) : 2 channels
Channel positions : Front: L R
Sampling rate : 44.1 kHz
Frame rate : 38.282 FPS (1152 spf)
Bit depth : 16 bits
Stream size : 31.2 MiB (4%)
Title : ORIGINAL FLAC
Writing library : libFLAC 1.0.25 (UTC 2007-09-17)
Language : Korean
Default : No
Forced : No



Spectrogram:
Original Audio
Image

Trap Remix (Prod. Natsu Fuji)
Image

Thumbnails
Image

Comments

No user comments have been posted.