[TnS] Saenai Heroine no Sodatekata - 06 SUB ITA [BD 1080p x264 Hi10p FLAC][BE1D4C33].mkv


Category: Anime - Non-English-translated
Uploaded by: TanoshimiNoSekaiFansub
Website Link: http://tnsfansub.altervista.org/
Hash: 4A29391BC6C84F888D5303B8036F3E8CAFFE36B6
Size: 821.0 MiB
Date: 3/1/2017, 2:41:00 PM UTC+0
Seeders: Unknown
Leechers: Unknown
Completed: Unknown
Last scraped: 7/17/2019, 2:47:54 AM UTC+0

Description

Image
Saenai Heroine no Sodatekata - 06 BD by
Tanoshimi no Sekai Fansub

Image



General
Unique ID : 231164801570527195846310911486861067406 (0xADE8B8A9F45FC79D8778605A9A49448E)
Complete name : [TnS] Saenai Heroine no Sodatekata - 06 [BD 1080p x264 Hi10p FLAC][BE1D4C33].mkv
Format : Matroska
Format version : Version 4 / Version 2
File size : 821 MiB
Duration : 22 min 52 s
Overall bit rate mode : Variable
Overall bit rate : 5 020 kb/s
Encoded date : UTC 2017-02-27 19:32:59
Writing application : mkvmerge v9.9.0 ('Pick Up') 64bit
Writing library : libebml v1.3.4 + libmatroska v1.4.5
Attachments : FOT-HummingStd-L.ttf / HGGyokuku.ttf / KGRayofSunshine.ttf / LEHN075.TTF / MyriadPro-Semibold.otf / Passing_Notes.ttf / PROFFESIONAL.ttf / ShannonStd-Bold-EienStinx.ttf / ShannonStd-Bold-EienStinxItalic.ttf / SinkinSans-700Bold.otf / VestaPro-Bold.otf / AveriaGWF-Light.ttf / Brianne_s_hand.ttf / curswfte.ttf / FOT Rodin Pro EB.ttf

Video
ID : 1
Format : AVC
Format/Info : Advanced Video Codec
Format profile : High 10@L5.2
Format settings, CABAC : Yes
Format settings, ReFrames : 16 frames
Codec ID : V_MPEG4/ISO/AVC
Duration : 22 min 52 s
Bit rate : 3 772 kb/s
Width : 1 920 pixels
Height : 1 080 pixels
Display aspect ratio : 16:9
Frame rate mode : Constant
Frame rate : 23.976 (24000/1001) FPS
Color space : YUV
Chroma subsampling : 4:2:0
Bit depth : 10 bits
Scan type : Progressive
Bits/(Pixel*Frame) : 0.076
Stream size : 617 MiB (75%)
Title : [TnS] Saenai Heroine no Sodatekata - 06 [BD 1080p x264 Hi10p]
Writing library : x264 core 142 r2431+42 c69a006 tMod [10-bit@all X86_64]
Encoding settings : cabac=1 / ref=16 / deblock=1:-1:-2 / analyse=0x3:0x133 / me=umh / subme=11 / psy=1 / fade_compensate=0.50 / psy_rd=0.84:0.00 / mixed_ref=1 / me_range=24 / chroma_me=1 / trellis=2 / 8x8dct=1 / cqm=0 / deadzone=21,11 / fast_pskip=0 / chroma_qp_offset=-2 / threads=12 / lookahead_threads=3 / sliced_threads=0 / nr=0 / decimate=1 / interlaced=0 / bluray_compat=0 / constrained_intra=0 / fgo=0 / bframes=16 / b_pyramid=2 / b_adapt=2 / b_bias=0 / direct=3 / weightb=1 / open_gop=0 / weightp=2 / keyint=400 / keyint_min=23 / scenecut=40 / intra_refresh=0 / rc_lookahead=80 / rc=crf / mbtree=1 / crf=15.3500 / qcomp=0.60 / qpmin=0:0:0 / qpmax=81:81:81 / qpstep=4 / ip_ratio=1.40 / aq=3:0.90 / aq-sensitivity=10.00 / aq-factor=1.00:1.00:1.00 / aq2=0 / aq3=0
Language : Japanese
Default : Yes
Forced : No
Color range : Limited
Color primaries : BT.709
Transfer characteristics : BT.709
Matrix coefficients : BT.709

Audio
ID : 2
Format : FLAC
Format/Info : Free Lossless Audio Codec
Codec ID : A_FLAC
Duration : 22 min 52 s
Bit rate mode : Variable
Bit rate : 1 235 kb/s
Channel(s) : 2 channels
Channel positions : Front: L R
Sampling rate : 48.0 kHz
Frame rate : 11.719 FPS (4096 spf)
Bit depth : 24 bits
Stream size : 202 MiB (25%)
Title : FLAC
Writing library : libFLAC 1.3.1 (UTC 2014-11-25)
Language : Japanese
Default : Yes
Forced : No

Text
ID : 3
Format : ASS
Codec ID : S_TEXT/ASS
Codec ID/Info : Advanced Sub Station Alpha
Duration : 22 min 46 s
Bit rate : 3 574 b/s
Count of elements : 2428
Compression mode : Lossless
Stream size : 596 KiB (0%)
Title : TnS
Language : Italian
Default : Yes
Forced : Yes

Menu
00:00:00.000 : it:Prologo
00:00:52.052 : it:Opening
00:02:22.017 : it:Episodio
00:20:13.003 : it:Anteprima
00:21:42.927 : it:Epilogo

Comments

No user comments have been posted.