우리 갑순이 | Our Gab Soon E14 720p NEXT


Category: Live Action - Raw
Uploaded by: Dvix
Website Link: http://www.kodrama.info/
Hash: F67A90A8A2FA78B1941D101C8F44C9225DFC264D
Size: 1.4 GiB
Date: 10/12/2016, 1:57:00 PM UTC+0
Seeders: Unknown
Leechers: Unknown
Completed: Unknown
Last scraped: 12/19/2018, 3:27:45 PM UTC+0

Description

우리 갑순이 | Our Gab Soon E14 720p NEXT

Genre: Drama Comedy Romance Family Countries: South Korea Languages: Korean
Directed By: Boo Sung-Chul
Actors: Kim So-eun Song Jae-rim Jang Yong Ko Du-shim Lee Bo-hee Kim Gyu-ri Yoo Sun Lee Wan Jeon Kuk-Hwan Lee Byung-joon

Image Image Image Image Image


Subtitles : English

Information & Find Us : http://www.kodrama.info/


MediaInfo

General
Complete name : downloads/Our Gab Soon (720p)/Our.Gab.Soon.E14.161009.720p-NEXT.mp4
Format : MPEG-4
Format profile : Base Media
Codec ID : isom
File size : 1.40 GiB
Duration : 1h 5mn
Overall bit rate mode : Variable
Overall bit rate : 3 039 Kbps
Writing application : MH ENCODER

Video
ID : 1
Format : AVC
Format/Info : Advanced Video Codec
Format profile : High@L3.2
Format settings, CABAC : Yes
Format settings, ReFrames : 3 frames
Codec ID : avc1
Codec ID/Info : Advanced Video Coding
Duration : 1h 5mn
Bit rate : 2 842 Kbps
Width : 1 280 pixels
Height : 720 pixels
Display aspect ratio : 16:9
Frame rate mode : Constant
Frame rate : 29.970 fps
Color space : YUV
Chroma subsampling : 4:2:0
Bit depth : 8 bits
Scan type : Progressive
Bits/(Pixel*Frame) : 0.103
Stream size : 1.31 GiB (94%)

Audio
ID : 2
Format : AAC
Format/Info : Advanced Audio Codec
Format profile : LC
Codec ID : 40
Duration : 1h 5mn
Bit rate mode : Variable
Bit rate : 192 Kbps
Maximum bit rate : 200 Kbps
Channel(s) : 2 channels
Channel positions : Front: L R
Sampling rate : 48.0 KHz
Compression mode : Lossy
Stream size : 89.1 MiB (6%)

Comments

No user comments have been posted.