판타스틱 듀오 | Fantastic Duo E26 720p NEXT


Category: Live Action - Raw
Uploaded by: Dvix
Website Link: http://www.kodrama.info/
Hash: 07370DB4B0C316B6E3FD4DC6F5A9C71758384203
Size: 2.0 GiB
Date: 10/12/2016, 1:52:00 PM UTC+0
Seeders: Unknown
Leechers: Unknown
Completed: Unknown
Last scraped: 4/8/2019, 4:32:31 AM UTC+0

Description

판타스틱 듀오 | Fantastic Duo E26 720p NEXT

Genre: Music Reality Countries: South Korea Languages: Korean


Image Image Image Image Image


Subtitles : English

Information & Find Us : http://www.kodrama.info/


MediaInfo

Video
ID : 1
Format : AVC
Format/Info : Advanced Video Codec
Format profile : High@L3.2
Format settings, CABAC : Yes
Format settings, ReFrames : 3 frames
Codec ID : avc1
Codec ID/Info : Advanced Video Coding
Duration : 1 h 34 min
Bit rate : 2 805 kb/s
Width : 1 280 pixels
Height : 720 pixels
Display aspect ratio : 16:9
Frame rate mode : Constant
Frame rate : 29.970 (30000/1001) FPS
Color space : YUV
Chroma subsampling : 4:2:0
Bit depth : 8 bits
Scan type : Progressive
Bits/(Pixel*Frame) : 0.102
Stream size : 1.85 GiB (93%)

Audio
ID : 2
Format : AAC
Format/Info : Advanced Audio Codec
Format profile : LC
Codec ID : 40
Duration : 1 h 34 min
Bit rate mode : Variable
Bit rate : 192 kb/s
Channel(s) : 2 channels
Channel positions : Front: L R
Sampling rate : 48.0 kHz
Frame rate : 46.875 FPS (1024 spf)
Compression mode : Lossy
Stream size : 128 MiB (6%)
Default : Yes
Alternate group : 1

Comments

No user comments have been posted.

Submit a comment as Anonymous

Markdown can be used in comments.