월계수 양복점 신사들 | The Gentlemen of Wolgyesu Tailor Shop E13 720p NEXT


Category: Live Action - Raw
Uploaded by: Dvix
Website Link: http://www.kodrama.info/
Hash: 76FD887BE714565E9E937381EBF3BF9B245D20F1
Size: 1.4 GiB
Date: 10/12/2016, 1:44:00 PM UTC+0
Seeders: Unknown
Leechers: Unknown
Completed: Unknown
Last scraped: 6/16/2019, 10:22:06 PM UTC+0

Description

월계수 양복점 신사들 | The Gentlemen of Wolgyesu Tailor Shop E13 720p NEXT

Genre: Drama Comedy Family Countries: South Korea Languages: Korean
Actors: Lee Dong-gun Jo Yoon-hee Choi Won-Young Hyun Woo Cha In-Pyo Oh Hyun-Kyung Ra Mi-ran Shin Goo Kim Young-Ae Lee Jung-Eun Park Joon-geum Lee Se-young

Image Image Image Image Image


Subtitles : English

Information & Find Us : http://www.kodrama.info/


MediaInfo

General
Complete name : downloads/The.Gentlemen.of.Wolgyesu.Tailor.Shop.E13.161008.720p-NEXT.mp4
Format : MPEG-4
Format profile : Base Media
Codec ID : isom
File size : 1.45 GiB
Duration : 1h 7mn
Overall bit rate mode : Variable
Overall bit rate : 3 091 Kbps
Writing application : MH ENCODER

Video
ID : 1
Format : AVC
Format/Info : Advanced Video Codec
Format profile : High@L3.2
Format settings, CABAC : Yes
Format settings, ReFrames : 3 frames
Codec ID : avc1
Codec ID/Info : Advanced Video Coding
Duration : 1h 7mn
Bit rate : 2 894 Kbps
Width : 1 280 pixels
Height : 720 pixels
Display aspect ratio : 16:9
Frame rate mode : Constant
Frame rate : 29.970 fps
Color space : YUV
Chroma subsampling : 4:2:0
Bit depth : 8 bits
Scan type : Progressive
Bits/(Pixel*Frame) : 0.105
Stream size : 1.36 GiB (94%)

Audio
ID : 2
Format : AAC
Format/Info : Advanced Audio Codec
Format profile : LC
Codec ID : 40
Duration : 1h 7mn
Bit rate mode : Variable
Bit rate : 192 Kbps
Channel(s) : 2 channels
Channel positions : Front: L R
Sampling rate : 48.0 KHz
Compression mode : Lossy
Stream size : 91.1 MiB (6%)

Comments

No user comments have been posted.

Submit a comment as Anonymous

Markdown can be used in comments.