옥중화 | The Flower in Prison E42 720p NEXT


Category: Live Action - Raw
Uploaded by: Dvix
Website Link: http://www.kodrama.info/
Hash: E5975A2FA2ED500CB541BAA191DF8296051DC854
Size: 1.4 GiB
Date: 10/12/2016, 1:38:00 PM UTC+0
Seeders: 0
Leechers: 1
Completed: 0
Last scraped: 6/13/2019, 5:45:52 PM UTC+0

Description

옥중화 | The Flower in Prison E42 720p NEXT

Genre: Drama History Countries: South Korea Languages: Korean
Directed By: Lee Byung-hoon Choi Jung-kyu
Actors: Jin Se-yeon Go Soo Kim Mi-Sook Jung Joon-ho Park Joo-mi Yoon Joo-hee Jun Kwang-ryul Choi Tae-joon Jung Eun-pyo Jung Da-bin Jung Yoon Suk Kim Soo Yun

Image Image Image Image Image


Subtitles : English

Information & Find Us : http://www.kodrama.info/


MediaInfo

General
Complete name : downloads/The.Flower.in.Prison.E42.161008.720p-NEXT.mp4
Format : MPEG-4
Format profile : Base Media
Codec ID : isom
File size : 1.40 GiB
Duration : 1h 6mn
Overall bit rate mode : Variable
Overall bit rate : 3 027 Kbps
Writing application : MH ENCODER

Video
ID : 1
Format : AVC
Format/Info : Advanced Video Codec
Format profile : High@L3.2
Format settings, CABAC : Yes
Format settings, ReFrames : 3 frames
Codec ID : avc1
Codec ID/Info : Advanced Video Coding
Duration : 1h 6mn
Bit rate : 2 829 Kbps
Width : 1 280 pixels
Height : 720 pixels
Display aspect ratio : 16:9
Frame rate mode : Constant
Frame rate : 29.970 fps
Color space : YUV
Chroma subsampling : 4:2:0
Bit depth : 8 bits
Scan type : Progressive
Bits/(Pixel*Frame) : 0.102
Stream size : 1.31 GiB (93%)

Audio
ID : 2
Format : AAC
Format/Info : Advanced Audio Codec
Format profile : LC
Codec ID : 40
Duration : 1h 6mn
Bit rate mode : Variable
Bit rate : 192 Kbps
Channel(s) : 2 channels
Channel positions : Front: L R
Sampling rate : 48.0 KHz
Compression mode : Lossy
Stream size : 89.5 MiB (6%)

Comments

No user comments have been posted.

Submit a comment as Anonymous

Markdown can be used in comments.