麻雀.Sparrow.EP37.2016.HD720P.X264.AAC.Mandarin.CHS.Mp4Ba.mp4


Category: Live Action - Raw
Uploaded by: Dvix
Website Link: http://kodrama.info/
Hash: 248024E5682346DDEDC65C521880046272996B84
Size: 1004.3 MiB
Date: 10/12/2016, 1:36:00 PM UTC+0
Seeders: 0
Leechers: 1
Completed: 0
Last scraped: 5/10/2019, 1:55:16 AM UTC+0

Description

Image Image Image Image Image Image


General
Complete name : G:\Sparrow\麻雀.Sparrow.EP38.2016.HD720P.X264.AAC.Mandarin.CHS.Mp4Ba.mp4
Format : MPEG-4
Format profile : Base Media
Codec ID : isom (isom/avc1)
File size : 1 005 MiB
Duration : 45 min
Overall bit rate mode : Variable
Overall bit rate : 3 086 kb/s
Encoded date : UTC 2016-10-02 16:35:27
Tagged date : UTC 2016-10-02 16:35:27

Video
ID : 1
Format : AVC
Format/Info : Advanced Video Codec
Format profile : High@L4.1
Format settings, CABAC : Yes
Format settings, ReFrames : 5 frames
Codec ID : avc1
Codec ID/Info : Advanced Video Coding
Duration : 45 min
Bit rate : 2 800 kb/s
Maximum bit rate : 14.8 Mb/s
Width : 1 280 pixels
Height : 720 pixels
Display aspect ratio : 16:9
Frame rate mode : Constant
Frame rate : 25.000 FPS
Color space : YUV
Chroma subsampling : 4:2:0
Bit depth : 8 bits
Scan type : Progressive
Bits/(Pixel*Frame) : 0.122
Stream size : 942 MiB (94%)
Title : 264:fps=25.0@GPAC0.5.1-DEV-rev4929
Writing library : x264 core 142 r2431+42 c69a006 tMod [8-bit@all X86_64]
Encoding settings : cabac=1 / ref=5 / deblock=1:-2:-2 / analyse=0x3:0x133 / me=umh / subme=7 / psy=1 / fade_compensate=0.00 / psy_rd=1.10:0.00 / mixed_ref=1 / me_range=16 / chroma_me=1 / trellis=1 / 8x8dct=1 / cqm=0 / deadzone=21,11 / fast_pskip=0 / chroma_qp_offset=-2 / threads=24 / lookahead_threads=4 / sliced_threads=0 / nr=0 / decimate=0 / interlaced=0 / bluray_compat=0 / constrained_intra=0 / fgo=0 / bframes=3 / b_pyramid=2 / b_adapt=2 / b_bias=0 / direct=3 / weightb=1 / open_gop=0 / weightp=2 / keyint=240 / keyint_min=24 / scenecut=40 / intra_refresh=0 / rc_lookahead=120 / rc=abr / mbtree=1 / bitrate=2800 / ratetol=1.0 / qcomp=0.70 / qpmin=0:0:0 / qpmax=69:69:69 / qpstep=4 / ip_ratio=1.10 / aq=1:0.90 / aq-sensitivity=10.00 / aq-factor=1.00:1.00:1.00 / aq2=0 / aq3=0
Encoded date : UTC 2016-10-02 16:35:27
Tagged date : UTC 2016-10-02 16:35:57

Audio
ID : 2
Format : AAC
Format/Info : Advanced Audio Codec
Format profile : LC
Codec ID : 40
Duration : 45 min
Bit rate mode : Variable
Bit rate : 192 kb/s
Maximum bit rate : 198 kb/s
Channel(s) : 2 channels
Channel positions : Front: L R
Sampling rate : 44.1 kHz
Frame rate : 43.066 FPS (1024 spf)
Compression mode : Lossy
Stream size : 61.7 MiB (6%)
Encoded date : UTC 2016-10-02 09:34:10
Tagged date : UTC 2016-10-02 16:35:57

Comments

No user comments have been posted.