우리 결혼했어요 | We Got Married E342 720p NEXT


Category: Live Action - Raw
Uploaded by: Dvix
Website Link: http://www.kodrama.info/
Hash: D4821D5129B488E04F89887467E3A79994D51C43
Size: 1.6 GiB
Date: 10/8/2016, 11:44:00 AM UTC+0
Seeders: Unknown
Leechers: Unknown
Completed: Unknown
Last scraped: 5/12/2019, 0:21:00 AM UTC+0

Description

Image Image Image Image Image Image Image Image

Subtitles : English

Information & Find Us : http://www.kodrama.info/







MediaInfo

General
Format : MPEG-4
Format profile : Base Media
Codec ID : isom (isom/iso2/avc1/mp41)
File size : 1.58 GiB
Duration : 1 h 14 min
Overall bit rate : 3 056 kb/s
Writing application : MH ENCODER

Video
ID : 1
Format : AVC
Format/Info : Advanced Video Codec
Format profile : High@L3.2
Format settings, CABAC : Yes
Format settings, ReFrames : 3 frames
Codec ID : avc1
Codec ID/Info : Advanced Video Coding
Duration : 1 h 14 min
Bit rate : 2 858 kb/s
Width : 1 280 pixels
Height : 720 pixels
Display aspect ratio : 16:9
Frame rate mode : Constant
Frame rate : 29.970 (30000/1001) FPS
Color space : YUV
Chroma subsampling : 4:2:0
Bit depth : 8 bits
Scan type : Progressive
Bits/(Pixel*Frame) : 0.103
Stream size : 1.48 GiB (94%)

Audio
ID : 2
Format : AAC
Format/Info : Advanced Audio Codec
Format profile : LC
Codec ID : 40
Duration : 1 h 14 min
Bit rate mode : Constant
Bit rate : 192 kb/s
Channel(s) : 2 channels
Channel positions : Front: L R
Sampling rate : 48.0 kHz
Frame rate : 46.875 FPS (1024 spf)
Compression mode : Lossy
Stream size : 101 MiB (6%)
Default : Yes
Alternate group : 1

Comments

No user comments have been posted.

Submit a comment as Anonymous

Markdown can be used in comments.