유희열의 스케치북 | You Hee-yeol's Sketchbook E337 720p NEXT


Category: Live Action - Raw
Uploaded by: Dvix
Website Link: http://www.kodrama.info/
Hash: 4F14C2ADA2D2AA913D4173BF41498F09EC25D72D
Size: 1.6 GiB
Date: 10/8/2016, 11:01:00 AM UTC+0
Seeders: 0
Leechers: 1
Completed: 0
Last scraped: 8/25/2019, 9:25:46 AM UTC+0

Description

Image Image Image Image Image Image Image Image

Subtitles : English

Information & Find Us : http://www.kodrama.info/





MediaInfo

General
Complete name : Yu Huiyeol's Sketchbook.E337.161008.720p-NEXT.mp4
Format : MPEG-4
Format profile : Base Media
Codec ID : isom
File size : 1.61 GiB
Duration : 1h 15mn
Overall bit rate mode : Variable
Overall bit rate : 3 036 Kbps
Writing application : MH ENCODER

Video
ID : 1
Format : AVC
Format/Info : Advanced Video Codec
Format profile : High@L3.2
Format settings, CABAC : Yes
Format settings, ReFrames : 3 frames
Format settings, GOP : M=4, N=30
Codec ID : avc1
Codec ID/Info : Advanced Video Coding
Duration : 1h 15mn
Bit rate : 2 839 Kbps
Width : 1 280 pixels
Height : 720 pixels
Display aspect ratio : 16:9
Frame rate mode : Constant
Frame rate : 29.970 fps
Color space : YUV
Chroma subsampling : 4:2:0
Bit depth : 8 bits
Scan type : Progressive
Bits/(Pixel*Frame) : 0.103
Stream size : 1.50 GiB (94%)

Audio
ID : 2
Format : AAC
Format/Info : Advanced Audio Codec
Format profile : LC
Codec ID : 40
Duration : 1h 15mn
Bit rate mode : Variable
Bit rate : 192 Kbps
Channel(s) : 2 channels
Channel positions : Front: L R
Sampling rate : 48.0 KHz
Compression mode : Lossy
Stream size : 103 MiB (6%)

Comments

No user comments have been posted.