"Kyou, Koi o Hajimemasu OVA ED Single — Ijiwaru na Koi [Itou Kanae] [flac+scans(bmp)+cue+log] [LACM-4739]"


Category: Audio - Lossless
Uploaded by: dark_ogamiya
Website Link: N/A
Hash: 77DE261D11AD9E2690930C285BF4C5A7D365871A
Size: 139.0 MiB
Date: 9/19/2010, 6:14:00 AM UTC+0
Seeders: Unknown
Leechers: Unknown
Completed: Unknown
Last scraped: 10/4/2018, 6:34:52 PM UTC+0

Description

Image


Exact Audio Copy V0.99 prebeta 5 from 4. May 2009

EAC 取り込みログファイル 日付 : 11. 9月 2010, 12:44

- / いじわるな恋

使用ドライブ : PIONEER BD-RW BDR-205 Adapter: 3 ID: 0

読み込みモード : セキュアモード
ドライブが正確なデータ転送能力を持つ : はい
オーディオキャッシュを使用できる : いいえ
C2エラー情報を検出する : いいえ

読み込みサンプルオフセット訂正値 : 637
リードイン・リードアウトをオーバーリードする : はい
欠落したオフセットサンプルを無音で補完する : はい
曲の先頭と末端の無音領域を削除する : いいえ
CRC計算で無音のサンプルを使用するか : はい
使用インターフェース : Win NT & 2000用のクラスドライバ

使用出力モード : 内蔵WAV出力ルーチン
サンプルフォーマット : 44.100 Hz; 16 Bit; ステレオ


TOC情報を抜き出します

トラック | スタート | 長さ | 始めのセクター | 最終セクター
----------------------------------------------------------------
1 | 0:00.00 | 5:31.65 | 0 | 24889
2 | 5:31.65 | 4:52.30 | 24890 | 46819
3 | 10:24.20 | 4:28.47 | 46820 | 66966


範囲取り込みステータス & エラー

選択された範囲

ファイル名 L:\EAC\今日、恋をはじめます_いじわるな恋/伊藤かな恵 (tak)\いじわるな恋.wav

ピークレベル 100.0 %
範囲取り込み品質 100.0 %
コピーCRC 234A3398
コピー OK

エラーは発生しませんでした

ステータス報告完了

Comments

No user comments have been posted.

Submit a comment as Anonymous

Markdown can be used in comments.