"Hime Chen! Otogi Chikku Idol Lilpri OP&ED Single — Little Princess [Lilpri, S/mileage] [flac+scans(png)+cue+log] [HKCN-50118]"


Category: Audio - Lossless
Uploaded by: dark_ogamiya
Website Link: N/A
Hash: 36DB8B4B70DA6DF24135AC0C6046227C60E49681
Size: 218.5 MiB
Date: 6/24/2010, 11:14:00 AM UTC+0
Seeders: 0
Leechers: 1
Completed: 0
Last scraped: 6/26/2019, 2:48:25 AM UTC+0

Description

Image


Exact Audio Copy V0.99 prebeta 4 from 23. January 2008

EAC 取り込みログファイル 日付 : 16. 6月 2010, 15:44

リルぷりっ / リトル ぷりんせす☆ぷりっ!

使用ドライブ : PIONEER DVD-RW DVR-216D Adapter: 3 ID: 0

読み込みモード : セキュアモード
ドライブが正確なデータ転送能力を持つ : はい
オーディオキャッシュを使用できる : はい
C2エラー情報を検出する : いいえ

読み込みサンプルオフセット訂正値 : 66
リードイン・リードアウトをオーバーリードする : いいえ
欠落したオフセットサンプルを無音で補完する : はい
曲の先頭と末端の無音領域を削除する : いいえ
CRC計算で無音のサンプルを使用するか : いいえ
使用インターフェース : Win NT & 2000用のクラスドライバ

使用出力モード : 内蔵WAV出力ルーチン
サンプルフォーマット : 44.100 Hz; 16 Bit; ステレオ


TOC情報を抜き出します

トラック | スタート | 長さ | 始めのセクター | 最終セクター
----------------------------------------------------------------
1 | 0:00.45 | 3:53.30 | 45 | 17549
2 | 3:54.00 | 3:57.70 | 17550 | 35394
3 | 7:51.70 | 3:08.12 | 35395 | 49506
4 | 11:00.07 | 3:53.30 | 49507 | 67011
5 | 14:53.37 | 3:57.70 | 67012 | 84856
6 | 18:51.32 | 3:03.42 | 84857 | 98623


範囲取り込みステータス & エラー

選択された範囲

ファイル名 D:\temp\リルぷりっ - リトル ぷりんせす☆ぷりっ!.wav

ピークレベル 100.0 %
範囲取り込み品質 99.9 %
コピーCRC 2BBF225F
コピー OK

エラーは発生しませんでした

ステータス報告完了

Comments

No user comments have been posted.