[torrenter69] Elfen Lied Season 1 [HiDive-DL Eng Dub] [1080p x264] [MP4]


Category: Anime - English-translated
Uploaded by:
Website Link: N/A
Hash: c38639113dcd39834e2943ba1052400ee83a22d6
Size: 6.4 GiB
Torrent language: English English
Video Quality: 1080p
Date: 5/3/2019, 3:29:32 AM UTC+0
Seeders: 3
Leechers: 1
Completed: 69
Last scraped: 5/19/2019, 2:02:03 PM UTC+0

Description

Video
ID : 1
Format : AVC
Format/Info : Advanced Video Codec
Format profile : High@L4
Format settings : CABAC / 4 Ref Frames
Format settings, CABAC : Yes
Format settings, ReFrames : 4 frames
Codec ID : avc1
Codec ID/Info : Advanced Video Coding
Duration : 26 min 35 s
Bit rate : 2 712 kb/s
Width : 1 920 pixels
Height : 1 080 pixels
Display aspect ratio : 16:9
Frame rate mode : Variable
Frame rate : 23.976 (23976/1000) FPS
Minimum frame rate : 23.968 FPS
Maximum frame rate : 23.981 FPS
Color space : YUV
Chroma subsampling : 4:2:0
Bit depth : 8 bits
Scan type : Progressive
Bits/(Pixel*Frame) : 0.055
Stream size : 516 MiB (95%)
Writing library : x264 core 142
Encoding settings : cabac=1 / ref=4 / deblock=1:1:1 / analyse=0x3:0x113 / me=umh / subme=8 / psy=1 / psy_rd=0.40:0.00 / mixed_ref=1 / me_range=16 / chroma_me=1 / trellis=1 / 8x8dct=1 / cqm=0 / deadzone=21,11 / fast_pskip=1 / chroma_qp_offset=-2 / threads=12 / lookahead_threads=2 / sliced_threads=0 / nr=0 / decimate=1 / interlaced=0 / bluray_compat=0 / constrained_intra=0 / bframes=3 / b_pyramid=2 / b_adapt=2 / b_bias=0 / direct=3 / weightb=1 / open_gop=0 / weightp=2 / keyint=48 / keyint_min=25 / scenecut=0 / intra_refresh=0 / rc_lookahead=48 / rc=crf / mbtree=1 / crf=15.0 / qcomp=0.60 / qpmin=0 / qpmax=69 / qpstep=4 / vbv_maxrate=8000 / vbv_bufsize=12000 / crf_max=0.0 / nal_hrd=none / filler=0 / ip_ratio=1.40 / aq=1:0.60
Language : English
Codec configuration box : avcC

Audio
ID : 2
Format : AAC LC
Format/Info : Advanced Audio Codec Low Complexity
Codec ID : mp4a-40-2
Duration : 26 min 35 s
Bit rate mode : Constant
Bit rate : 128 kb/s
Channel(s) : 2 channels
Channel layout : L R
Sampling rate : 44.1 kHz
Frame rate : 43.066 FPS (1024 SPF)
Compression mode : Lossy
Stream size : 24.3 MiB (4%)
Language : English
Default : Yes
Alternate group : 1

File Name Size
[torrenter69] Elfen Lied S01E01 - Begegnung - Encounter [HiDive-DL Eng Dub] [1080p x264].mp4 541.6 MiB
[torrenter69] Elfen Lied S01E02 - Vernichtung - Wipe Out [HiDive-DL Eng Dub] [1080p x264].mp4 655.1 MiB
[torrenter69] Elfen Lied S01E03 - Im Innersten - Within Heart [HiDive-DL Eng Dub] [1080p x264].mp4 467.8 MiB
[torrenter69] Elfen Lied S01E04 - Aufeinandertreffen - Meeting [HiDive-DL Eng Dub] [1080p x264].mp4 493.9 MiB
[torrenter69] Elfen Lied S01E05 - Empfang - Reception [HiDive-DL Eng Dub] [1080p x264].mp4 483.7 MiB
[torrenter69] Elfen Lied S01E06 - Herzenswaerme - Inner Feelings [HiDive-DL Eng Dub] [1080p x264].mp4 568.4 MiB
[torrenter69] Elfen Lied S01E07 - Zuf_llige Begegnung - Chance Meeting [HiDive-DL Eng Dub] [1080p x264].mp4 433.5 MiB
[torrenter69] Elfen Lied S01E08 - Beginn - The Very Beginning [HiDive-DL Eng Dub] [1080p x264].mp4 476.3 MiB
[torrenter69] Elfen Lied S01E09 - Schoene Erinnerung - Reminiscence [HiDive-DL Eng Dub] [1080p x264].mp4 524.4 MiB
[torrenter69] Elfen Lied S01E10 - Saeugling - Suckling [HiDive-DL Eng Dub] [1080p x264].mp4 472.2 MiB
[torrenter69] Elfen Lied S01E11 - Vermischung - Complication [HiDive-DL Eng Dub] [1080p x264].mp4 491.9 MiB
[torrenter69] Elfen Lied S01E12 - Taumeln - Quagmire [HiDive-DL Eng Dub] [1080p x264].mp4 495.2 MiB
[torrenter69] Elfen Lied S01E13 - Erleuchtung - No Return [HiDive-DL Eng Dub] [1080p x264].mp4 422.5 MiB

Comments

No user comments have been posted.

Submit a comment as Anonymous

Markdown can be used in comments.