[torrenter69] Classroom of the Elite Season 1 [Funi-DL Eng Dub] [1080p x264 AAC] [MP4]


Category: Anime - English-translated
Uploaded by:
Website Link: N/A
Hash: 6052e215f286a14e0a69892ceaa127be6e87c735
Size: 13.2 GiB
Torrent language: English English
Video Quality: 1080p
Date: 5/3/2019, 1:13:03 AM UTC+0
Seeders: 1
Leechers: 1
Completed: 2
Last scraped: 8/16/2019, 11:47:14 AM UTC+0

Description

Video
ID : 1
Format : AVC
Format/Info : Advanced Video Codec
Format profile : High@L4
Format settings : CABAC / 4 Ref Frames
Format settings, CABAC : Yes
Format settings, ReFrames : 4 frames
Codec ID : avc1
Codec ID/Info : Advanced Video Coding
Duration : 24 min 9 s
Bit rate : 6 500 kb/s
Width : 1 920 pixels
Height : 1 080 pixels
Display aspect ratio : 16:9
Frame rate mode : Variable
Frame rate : 23.976 (24000/1001) FPS
Minimum frame rate : 23.974 FPS
Maximum frame rate : 23.981 FPS
Color space : YUV
Chroma subsampling : 4:2:0
Bit depth : 8 bits
Scan type : Progressive
Bits/(Pixel*Frame) : 0.131
Stream size : 1.05 GiB (96%)
Writing library : x264 core 155 r2911 e33ca07
Encoding settings : cabac=1 / ref=1 / deblock=1:0:0 / analyse=0x3:0x113 / me=hex / subme=7 / psy=1 / psy_rd=1.00:0.00 / mixed_ref=0 / me_range=16 / chroma_me=1 / trellis=1 / 8x8dct=1 / cqm=0 / deadzone=21,11 / fast_pskip=1 / chroma_qp_offset=-2 / threads=24 / lookahead_threads=4 / sliced_threads=0 / nr=0 / decimate=1 / interlaced=0 / bluray_compat=0 / constrained_intra=0 / bframes=2 / b_pyramid=2 / b_adapt=1 / b_bias=0 / direct=1 / weightb=1 / open_gop=0 / weightp=2 / keyint=48 / keyint_min=4 / scenecut=40 / intra_refresh=0 / rc_lookahead=40 / rc=cbr / mbtree=1 / bitrate=6500 / ratetol=1.0 / qcomp=0.60 / qpmin=0 / qpmax=69 / qpstep=4 / vbv_maxrate=6500 / vbv_bufsize=19500 / nal_hrd=none / filler=0 / ip_ratio=1.40 / aq=1:1.00
Codec configuration box : avcC

Audio
ID : 2
Format : AAC LC
Format/Info : Advanced Audio Codec Low Complexity
Codec ID : mp4a-40-2
Duration : 24 min 10 s
Bit rate mode : Constant
Bit rate : 253 kb/s
Channel(s) : 2 channels
Channel layout : L R
Sampling rate : 48.0 kHz
Frame rate : 46.875 FPS (1024 SPF)
Compression mode : Lossy
Stream size : 43.8 MiB (4%)
Default : Yes
Alternate group : 1

File Name Size
[torrenter69] Classroom of the Elite S01E01 [Funi-DL Eng Dub] [1080p x264 AAC].mp4 1.1 GiB
[torrenter69] Classroom of the Elite S01E02 [Funi-DL Eng Dub] [1080p x264 AAC].mp4 1.1 GiB
[torrenter69] Classroom of the Elite S01E03 [Funi-DL Eng Dub] [1080p x264 AAC].mp4 1.1 GiB
[torrenter69] Classroom of the Elite S01E04 [Funi-DL Eng Dub] [1080p x264 AAC].mp4 1.1 GiB
[torrenter69] Classroom of the Elite S01E05 [Funi-DL Eng Dub] [1080p x264 AAC].mp4 1.1 GiB
[torrenter69] Classroom of the Elite S01E06 [Funi-DL Eng Dub] [1080p x264 AAC].mp4 1.1 GiB
[torrenter69] Classroom of the Elite S01E07 [Funi-DL Eng Dub] [1080p x264 AAC].mp4 1.1 GiB
[torrenter69] Classroom of the Elite S01E08 [Funi-DL Eng Dub] [1080p x264 AAC].mp4 1.1 GiB
[torrenter69] Classroom of the Elite S01E09 [Funi-DL Eng Dub] [1080p x264 AAC].mp4 1.1 GiB
[torrenter69] Classroom of the Elite S01E10 [Funi-DL Eng Dub] [1080p x264 AAC].mp4 1.1 GiB
[torrenter69] Classroom of the Elite S01E11 [Funi-DL Eng Dub] [1080p x264 AAC].mp4 1.1 GiB
[torrenter69] Classroom of the Elite S01E12 [Funi-DL Eng Dub] [1080p x264 AAC].mp4 1.1 GiB

Comments

No user comments have been posted.