[torrenter69] Fate Kaleid Liner PRISMA ILLYA Season 4 [1080p x264] [CR-DL] [MKV] [Multiple Subtitle]


Category: Anime - English-translated
Uploaded by:
Website Link: N/A
Hash: 3c79c806448a63dafee8943f60477b732ae53f66
Size: 4.1 GiB
Torrent language: German German English English Spanish Spanish French French Portuguese Portuguese
Video Quality: 1080p
Date: 5/3/2019, 0:21:12 AM UTC+0
Seeders: 1
Leechers: 1
Completed: 101
Last scraped: 9/13/2019, 4:57:00 PM UTC+0

Description

Video
ID : 1
Format : AVC
Format/Info : Advanced Video Codec
Format profile : High@L4
Format settings : CABAC / 1 Ref Frames
Format settings, CABAC : Yes
Format settings, ReFrames : 1 frame
Codec ID : V_MPEG4/ISO/AVC
Duration : 23 min 35 s
Bit rate mode : Variable
Bit rate : 1 933 kb/s
Maximum bit rate : 6 000 kb/s
Width : 1 920 pixels
Height : 1 080 pixels
Display aspect ratio : 16:9
Frame rate mode : Constant
Frame rate : 23.976 (24000/1001) FPS
Color space : YUV
Chroma subsampling : 4:2:0
Bit depth : 8 bits
Scan type : Progressive
Bits/(Pixel*Frame) : 0.039
Stream size : 326 MiB (93%)
Writing library : Lavc58.52.100 h264_nvenc
Default : Yes
Forced : No

Audio
ID : 2
Format : Vorbis
Format settings, Floor : 1
Codec ID : A_VORBIS
Duration : 23 min 36 s
Bit rate mode : Variable
Bit rate : 112 kb/s
Channel(s) : 2 channels
Sampling rate : 44.1 kHz
Compression mode : Lossy
Delay relative to video : -83 ms
Stream size : 18.9 MiB (5%)
Writing application : Lavc58.52.100
Writing library : libVorbis (Now 100% fewer shells) (20180316 (Now 100% fewer shells))
Default : Yes
Forced : No

Text #1
ID : 3
Format : ASS
Codec ID : S_TEXT/ASS
Codec ID/Info : Advanced Sub Station Alpha
Duration : 23 min 35 s
Compression mode : Lossless
Language : French
Default : No
Forced : No

Text #2
ID : 4
Format : ASS
Codec ID : S_TEXT/ASS
Codec ID/Info : Advanced Sub Station Alpha
Duration : 23 min 36 s
Compression mode : Lossless
Language : Spanish
Default : No
Forced : No

Text #3
ID : 5
Format : ASS
Codec ID : S_TEXT/ASS
Codec ID/Info : Advanced Sub Station Alpha
Duration : 23 min 36 s
Compression mode : Lossless
Language : Italian
Default : No
Forced : No

Text #4
ID : 6
Format : ASS
Codec ID : S_TEXT/ASS
Codec ID/Info : Advanced Sub Station Alpha
Duration : 23 min 35 s
Compression mode : Lossless
Language : German
Default : No
Forced : No

Text #5
ID : 7
Format : ASS
Codec ID : S_TEXT/ASS
Codec ID/Info : Advanced Sub Station Alpha
Duration : 23 min 36 s
Compression mode : Lossless
Language : Portuguese
Default : No
Forced : No

Text #6
ID : 8
Format : ASS
Codec ID : S_TEXT/ASS
Codec ID/Info : Advanced Sub Station Alpha
Duration : 23 min 36 s
Compression mode : Lossless
Language : Spanish
Default : No
Forced : No

Text #7
ID : 9
Format : ASS
Codec ID : S_TEXT/ASS
Codec ID/Info : Advanced Sub Station Alpha
Duration : 23 min 36 s
Compression mode : Lossless
Language : English
Default : No
Forced : No

File Name Size
[torrenter69] Fate Kaleid Liner PRISMA ILLYA S04E01 - City Fading to Silver [1080p x264] [CR-DL].mkv 352.2 MiB
[torrenter69] Fate Kaleid Liner PRISMA ILLYA S04E02 - You Are Not Alone [1080p x264] [CR-DL].mkv 356.2 MiB
[torrenter69] Fate Kaleid Liner PRISMA ILLYA S04E03 - Your True Enemy [1080p x264] [CR-DL].mkv 352.8 MiB
[torrenter69] Fate Kaleid Liner PRISMA ILLYA S04E04 - For My Weak Little Sister [1080p x264] [CR-DL].mkv 357.6 MiB
[torrenter69] Fate Kaleid Liner PRISMA ILLYA S04E05 - The Little Lady Attacks [1080p x264] [CR-DL].mkv 355.4 MiB
[torrenter69] Fate Kaleid Liner PRISMA ILLYA S04E06 - Chilling Hostility [1080p x264] [CR-DL].mkv 334.1 MiB
[torrenter69] Fate Kaleid Liner PRISMA ILLYA S04E07 - Dolls and Stuffed Animals [1080p x264] [CR-DL].mkv 352.5 MiB
[torrenter69] Fate Kaleid Liner PRISMA ILLYA S04E08 - People and Tools [1080p x264] [CR-DL].mkv 355.3 MiB
[torrenter69] Fate Kaleid Liner PRISMA ILLYA S04E09 - Illya's Choice [1080p x264] [CR-DL].mkv 360.1 MiB
[torrenter69] Fate Kaleid Liner PRISMA ILLYA S04E10 - To the Princess's Side [1080p x264] [CR-DL].mkv 358.3 MiB
[torrenter69] Fate Kaleid Liner PRISMA ILLYA S04E11 - You Are Not Alone [1080p x264] [CR-DL].mkv 358.1 MiB
[torrenter69] Fate Kaleid Liner PRISMA ILLYA S04E12 - Woven Miracles [1080p x264] [CR-DL].mkv 356.5 MiB

Comments

No user comments have been posted.