[torrenter69] Fate Kaleid Liner PRISMA ILLYA Season 3 [1080p x264] [CR-DL] [MKV] [Multiple Subtitle]


Category: Anime - English-translated
Uploaded by:
Website Link: N/A
Hash: 4f72c6058a06bd3409f1f01ddd6a6c54f20e25ee
Size: 3.5 GiB
Torrent language: German German English English Spanish Spanish French French Italian Italian Portuguese Portuguese
Video Quality: 1080p
Date: 5/2/2019, 11:21:43 PM UTC+0
Seeders: 1
Leechers: 5
Completed: 83
Last scraped: 8/20/2019, 1:31:27 PM UTC+0

Description

Video
ID : 1
Format : AVC
Format/Info : Advanced Video Codec
Format profile : High@L4
Format settings : CABAC / 1 Ref Frames
Format settings, CABAC : Yes
Format settings, ReFrames : 1 frame
Codec ID : V_MPEG4/ISO/AVC
Duration : 23 min 35 s
Bit rate mode : Variable
Bit rate : 1 948 kb/s
Maximum bit rate : 6 000 kb/s
Width : 1 920 pixels
Height : 1 080 pixels
Display aspect ratio : 16:9
Frame rate mode : Constant
Frame rate : 23.976 (24000/1001) FPS
Color space : YUV
Chroma subsampling : 4:2:0
Bit depth : 8 bits
Scan type : Progressive
Bits/(Pixel*Frame) : 0.039
Stream size : 329 MiB (93%)
Writing library : Lavc58.52.100 h264_nvenc
Default : Yes
Forced : No

Audio
ID : 2
Format : Vorbis
Format settings, Floor : 1
Codec ID : A_VORBIS
Duration : 23 min 36 s
Bit rate mode : Variable
Bit rate : 112 kb/s
Channel(s) : 2 channels
Sampling rate : 44.1 kHz
Compression mode : Lossy
Delay relative to video : -83 ms
Stream size : 18.9 MiB (5%)
Writing application : Lavc58.52.100
Writing library : libVorbis (Now 100% fewer shells) (20180316 (Now 100% fewer shells))
Default : Yes
Forced : No

Text #1
ID : 3
Format : ASS
Codec ID : S_TEXT/ASS
Codec ID/Info : Advanced Sub Station Alpha
Duration : 23 min 36 s
Compression mode : Lossless
Language : Spanish
Default : No
Forced : No

Text #2
ID : 4
Format : ASS
Codec ID : S_TEXT/ASS
Codec ID/Info : Advanced Sub Station Alpha
Duration : 23 min 36 s
Compression mode : Lossless
Language : Spanish
Default : No
Forced : No

Text #3
ID : 5
Format : ASS
Codec ID : S_TEXT/ASS
Codec ID/Info : Advanced Sub Station Alpha
Duration : 23 min 36 s
Compression mode : Lossless
Language : Italian
Default : No
Forced : No

Text #4
ID : 6
Format : ASS
Codec ID : S_TEXT/ASS
Codec ID/Info : Advanced Sub Station Alpha
Duration : 23 min 36 s
Compression mode : Lossless
Language : German
Default : No
Forced : No

Text #5
ID : 7
Format : ASS
Codec ID : S_TEXT/ASS
Codec ID/Info : Advanced Sub Station Alpha
Duration : 23 min 35 s
Compression mode : Lossless
Language : French
Default : No
Forced : No

Text #6
ID : 8
Format : ASS
Codec ID : S_TEXT/ASS
Codec ID/Info : Advanced Sub Station Alpha
Duration : 23 min 36 s
Compression mode : Lossless
Language : Portuguese
Default : No
Forced : No

Text #7
ID : 9
Format : ASS
Codec ID : S_TEXT/ASS
Codec ID/Info : Advanced Sub Station Alpha
Duration : 23 min 36 s
Compression mode : Lossless
Language : English
Default : No
Forced : No

File Name Size
[torrenter69] Fate Kaleid Liner PRISMA ILLYA S03E01 - It's Like Looking in a Mirror, and I Don't Like It [1080p x264] [CR-DL].mkv 355.0 MiB
[torrenter69] Fate Kaleid Liner PRISMA ILLYA S03E02 - Tricolore Birthday [1080p x264] [CR-DL].mkv 356.2 MiB
[torrenter69] Fate Kaleid Liner PRISMA ILLYA S03E03 - Girls, Life is Short, so Rot Away! [1080p x264] [CR-DL].mkv 356.7 MiB
[torrenter69] Fate Kaleid Liner PRISMA ILLYA S03E04 - Theme Park Panic [1080p x264] [CR-DL].mkv 349.5 MiB
[torrenter69] Fate Kaleid Liner PRISMA ILLYA S03E05 - Yukatas and Fireworks [1080p x264] [CR-DL].mkv 351.1 MiB
[torrenter69] Fate Kaleid Liner PRISMA ILLYA S03E06 - Blue Glass Moon [1080p x264] [CR-DL].mkv 345.8 MiB
[torrenter69] Fate Kaleid Liner PRISMA ILLYA S03E07 - Enforcer [1080p x264] [CR-DL].mkv 347.9 MiB
[torrenter69] Fate Kaleid Liner PRISMA ILLYA S03E08 - Observer [1080p x264] [CR-DL].mkv 362.5 MiB
[torrenter69] Fate Kaleid Liner PRISMA ILLYA S03E09 - Golden Boy [1080p x264] [CR-DL].mkv 357.8 MiB
[torrenter69] Fate Kaleid Liner PRISMA ILLYA S03E10 - Calling Your Name From a Corner of the World [1080p x264] [CR-DL].mkv 352.1 MiB

Comments

No user comments have been posted.