[torrenter69] Fate Kaleid Liner PRISMA ILLYA Season 2 [1080p x264] [CR-DL] [MKV] [Multiple Subtitle]


Category: Anime - English-translated
Uploaded by:
Website Link: N/A
Hash: 8a19997157e9f96264f96164f9536318cacae7d3
Size: 3.5 GiB
Torrent language: English English Spanish Spanish Portuguese Portuguese
Video Quality: 1080p
Date: 5/2/2019, 11:20:27 PM UTC+0
Seeders: 6
Leechers: 2
Completed: 121
Last scraped: 5/20/2019, 1:41:31 PM UTC+0

Description

Video
ID : 1
Format : AVC
Format/Info : Advanced Video Codec
Format profile : High@L4
Format settings : CABAC / 1 Ref Frames
Format settings, CABAC : Yes
Format settings, ReFrames : 1 frame
Codec ID : V_MPEG4/ISO/AVC
Duration : 23 min 40 s
Bit rate mode : Variable
Bit rate : 1 972 kb/s
Maximum bit rate : 6 000 kb/s
Width : 1 920 pixels
Height : 1 080 pixels
Display aspect ratio : 16:9
Frame rate mode : Constant
Frame rate : 23.976 (24000/1001) FPS
Color space : YUV
Chroma subsampling : 4:2:0
Bit depth : 8 bits
Scan type : Progressive
Bits/(Pixel*Frame) : 0.040
Stream size : 334 MiB (93%)
Writing library : Lavc58.52.100 h264_nvenc
Default : Yes
Forced : No

Audio
ID : 2
Format : Vorbis
Format settings, Floor : 1
Codec ID : A_VORBIS
Duration : 23 min 40 s
Bit rate mode : Variable
Bit rate : 112 kb/s
Channel(s) : 2 channels
Sampling rate : 44.1 kHz
Compression mode : Lossy
Delay relative to video : -83 ms
Stream size : 19.0 MiB (5%)
Writing application : Lavc58.52.100
Writing library : libVorbis (Now 100% fewer shells) (20180316 (Now 100% fewer shells))
Default : Yes
Forced : No

Text #1
ID : 3
Format : ASS
Codec ID : S_TEXT/ASS
Codec ID/Info : Advanced Sub Station Alpha
Duration : 23 min 40 s
Compression mode : Lossless
Language : Spanish
Default : No
Forced : No

Text #2
ID : 4
Format : ASS
Codec ID : S_TEXT/ASS
Codec ID/Info : Advanced Sub Station Alpha
Duration : 23 min 40 s
Compression mode : Lossless
Language : Portuguese
Default : No
Forced : No

Text #3
ID : 5
Format : ASS
Codec ID : S_TEXT/ASS
Codec ID/Info : Advanced Sub Station Alpha
Duration : 23 min 40 s
Compression mode : Lossless
Language : English
Default : No
Forced : No

File Name Size
[torrenter69] Fate Kaleid Liner PRISMA ILLYA S02E01 - Illya Grow Up! [1080p x264] [CR-DL].mkv 360.0 MiB
[torrenter69] Fate Kaleid Liner PRISMA ILLYA S02E02 - Illya x Illya [1080p x264] [CR-DL].mkv 354.6 MiB
[torrenter69] Fate Kaleid Liner PRISMA ILLYA S02E03 - Normal Life Breaker [1080p x264] [CR-DL].mkv 356.1 MiB
[torrenter69] Fate Kaleid Liner PRISMA ILLYA S02E04 - Wild Transfer Student [1080p x264] [CR-DL].mkv 340.2 MiB
[torrenter69] Fate Kaleid Liner PRISMA ILLYA S02E05 - Well, In Other Words [1080p x264] [CR-DL].mkv 365.0 MiB
[torrenter69] Fate Kaleid Liner PRISMA ILLYA S02E06 - On the Other Side of Lies and Façade [1080p x264] [CR-DL].mkv 353.0 MiB
[torrenter69] Fate Kaleid Liner PRISMA ILLYA S02E07 - Clash! Cooking Sisters! [1080p x264] [CR-DL].mkv 354.1 MiB
[torrenter69] Fate Kaleid Liner PRISMA ILLYA S02E08 - Her Name Is [1080p x264] [CR-DL].mkv 360.9 MiB
[torrenter69] Fate Kaleid Liner PRISMA ILLYA S02E09 - Lone Battle [1080p x264] [CR-DL].mkv 364.8 MiB
[torrenter69] Fate Kaleid Liner PRISMA ILLYA S02E10 - The Things Those Hands Protected [1080p x264] [CR-DL].mkv 349.4 MiB

Comments

No user comments have been posted.

Submit a comment as Anonymous

Markdown can be used in comments.