[torrenter69] Fate Kaleid Liner PRISMA ILLYA Season 1 [1080p x264] [CR-DL] [MKV] [Multiple Subtitle]


Category: Anime - English-translated
Uploaded by:
Website Link: N/A
Hash: 16fd4280e62db78c58de71acda4ac5b2b2724589
Size: 3.4 GiB
Torrent language: English English Spanish Spanish Portuguese Portuguese
Video Quality: 1080p
Date: 5/2/2019, 11:19:41 PM UTC+0
Seeders: 3
Leechers: 1
Completed: 99
Last scraped: 8/10/2019, 4:37:13 PM UTC+0

Description

Video
ID : 1
Format : AVC
Format/Info : Advanced Video Codec
Format profile : High@L4
Format settings : CABAC / 1 Ref Frames
Format settings, CABAC : Yes
Format settings, ReFrames : 1 frame
Codec ID : V_MPEG4/ISO/AVC
Duration : 23 min 40 s
Bit rate mode : Variable
Bit rate : 1 867 kb/s
Maximum bit rate : 6 000 kb/s
Width : 1 920 pixels
Height : 1 080 pixels
Display aspect ratio : 16:9
Frame rate mode : Constant
Frame rate : 23.976 (24000/1001) FPS
Color space : YUV
Chroma subsampling : 4:2:0
Bit depth : 8 bits
Scan type : Progressive
Bits/(Pixel*Frame) : 0.038
Stream size : 316 MiB (92%)
Writing library : Lavc58.52.100 h264_nvenc
Default : Yes
Forced : No

Audio
ID : 2
Format : Vorbis
Format settings, Floor : 1
Codec ID : A_VORBIS
Duration : 23 min 40 s
Bit rate mode : Variable
Bit rate : 112 kb/s
Channel(s) : 2 channels
Sampling rate : 44.1 kHz
Compression mode : Lossy
Delay relative to video : -83 ms
Stream size : 19.0 MiB (6%)
Writing application : Lavc58.52.100
Writing library : libVorbis (Now 100% fewer shells) (20180316 (Now 100% fewer shells))
Default : Yes
Forced : No

Text #1
ID : 3
Format : ASS
Codec ID : S_TEXT/ASS
Codec ID/Info : Advanced Sub Station Alpha
Duration : 23 min 40 s
Compression mode : Lossless
Language : Spanish
Default : No
Forced : No

Text #2
ID : 4
Format : ASS
Codec ID : S_TEXT/ASS
Codec ID/Info : Advanced Sub Station Alpha
Duration : 23 min 40 s
Compression mode : Lossless
Language : Portuguese
Default : No
Forced : No

Text #3
ID : 5
Format : ASS
Codec ID : S_TEXT/ASS
Codec ID/Info : Advanced Sub Station Alpha
Duration : 23 min 40 s
Compression mode : Lossless
Language : English
Default : No
Forced : No

File Name Size
[torrenter69] Fate Kaleid Liner PRISMA ILLYA S01E01 - Birth! A Magical Girl! [1080p x264] [CR-DL].mkv 341.9 MiB
[torrenter69] Fate Kaleid Liner PRISMA ILLYA S01E02 - Who [1080p x264] [CR-DL].mkv 351.6 MiB
[torrenter69] Fate Kaleid Liner PRISMA ILLYA S01E03 - Girl Meets Girl [1080p x264] [CR-DL].mkv 350.3 MiB
[torrenter69] Fate Kaleid Liner PRISMA ILLYA S01E04 - We Lost [1080p x264] [CR-DL].mkv 342.1 MiB
[torrenter69] Fate Kaleid Liner PRISMA ILLYA S01E05 - There are two options [1080p x264] [CR-DL].mkv 350.5 MiB
[torrenter69] Fate Kaleid Liner PRISMA ILLYA S01E06 - A Blank, and the End of Night… [1080p x264] [CR-DL].mkv 344.5 MiB
[torrenter69] Fate Kaleid Liner PRISMA ILLYA S01E07 - Victory and Flight [1080p x264] [CR-DL].mkv 344.4 MiB
[torrenter69] Fate Kaleid Liner PRISMA ILLYA S01E08 - I'm Going to Be a Normal Girl Again! [1080p x264] [CR-DL].mkv 330.1 MiB
[torrenter69] Fate Kaleid Liner PRISMA ILLYA S01E09 - I'll End It Here! [1080p x264] [CR-DL].mkv 347.5 MiB
[torrenter69] Fate Kaleid Liner PRISMA ILLYA S01E10 - Kaleidoscope [1080p x264] [CR-DL].mkv 348.0 MiB

Comments

No user comments have been posted.