[torrenter69] Kin`iro Mosaic S01 + S02 (KINMOZA! + Hello!! KINMOZA) [1080p x264] [CR-DL] [MKV] [Multiple Subtitle]


Category: Anime - English-translated
Uploaded by:
Website Link: N/A
Hash: 7178b03ddf3326e482824ef538a4ad054debd4fa
Size: 8.3 GiB
Torrent language: German German English English Spanish Spanish French French Italian Italian Portuguese Portuguese
Video Quality: 1080p
Date: 5/2/2019, 2:08:16 AM UTC+0
Seeders: 2
Leechers: 3
Completed: 58
Last scraped: 5/24/2019, 10:44:03 PM UTC+0

Description

Video
ID : 1
Format : AVC
Format/Info : Advanced Video Codec
Format profile : Main@L4
Format settings : CABAC / 1 Ref Frames
Format settings, CABAC : Yes
Format settings, ReFrames : 1 frame
Codec ID : V_MPEG4/ISO/AVC
Duration : 23 min 20 s
Bit rate mode : Variable
Bit rate : 1 913 kb/s
Maximum bit rate : 6 000 kb/s
Width : 1 920 pixels
Height : 1 080 pixels
Display aspect ratio : 16:9
Frame rate mode : Constant
Frame rate : 23.976 (24000/1001) FPS
Color space : YUV
Chroma subsampling : 4:2:0
Bit depth : 8 bits
Scan type : Progressive
Bits/(Pixel*Frame) : 0.038
Stream size : 319 MiB (93%)
Writing library : Lavc58.52.100 h264_nvenc
Default : Yes
Forced : No

Audio
ID : 2
Format : Vorbis
Format settings, Floor : 1
Codec ID : A_VORBIS
Duration : 23 min 20 s
Bit rate mode : Variable
Bit rate : 112 kb/s
Channel(s) : 2 channels
Sampling rate : 44.1 kHz
Compression mode : Lossy
Delay relative to video : -83 ms
Stream size : 18.7 MiB (5%)
Writing application : Lavc58.52.100
Writing library : libVorbis (Now 100% fewer shells) (20180316 (Now 100% fewer shells))
Default : Yes
Forced : No

Text #1
ID : 3
Format : ASS
Codec ID : S_TEXT/ASS
Codec ID/Info : Advanced Sub Station Alpha
Duration : 23 min 19 s
Compression mode : Lossless
Language : Arabic
Default : No
Forced : No

Text #2
ID : 4
Format : ASS
Codec ID : S_TEXT/ASS
Codec ID/Info : Advanced Sub Station Alpha
Duration : 23 min 11 s
Compression mode : Lossless
Language : Portuguese
Default : No
Forced : No

Text #3
ID : 5
Format : ASS
Codec ID : S_TEXT/ASS
Codec ID/Info : Advanced Sub Station Alpha
Duration : 23 min 11 s
Compression mode : Lossless
Language : English
Default : No
Forced : No

Text #4
ID : 6
Format : ASS
Codec ID : S_TEXT/ASS
Codec ID/Info : Advanced Sub Station Alpha
Duration : 23 min 9 s
Compression mode : Lossless
Language : Spanish
Default : No
Forced : No

Text #5
ID : 7
Format : ASS
Codec ID : S_TEXT/ASS
Codec ID/Info : Advanced Sub Station Alpha
Duration : 23 min 11 s
Compression mode : Lossless
Language : Italian
Default : No
Forced : No

Text #6
ID : 8
Format : ASS
Codec ID : S_TEXT/ASS
Codec ID/Info : Advanced Sub Station Alpha
Duration : 23 min 9 s
Compression mode : Lossless
Language : Spanish
Default : No
Forced : No

Text #7
ID : 9
Format : ASS
Codec ID : S_TEXT/ASS
Codec ID/Info : Advanced Sub Station Alpha
Duration : 23 min 9 s
Compression mode : Lossless
Language : German
Default : No
Forced : No

Text #8
ID : 10
Format : ASS
Codec ID : S_TEXT/ASS
Codec ID/Info : Advanced Sub Station Alpha
Duration : 23 min 9 s
Compression mode : Lossless
Language : French
Default : No
Forced : No

File Name Size
KINMOZA! S01E01 - in Wonderland.mkv 357.0 MiB
KINMOZA! S01E02 - Even If I'm Small.mkv 357.2 MiB
KINMOZA! S01E03 - What Kind of Friends Will I Make.mkv 358.0 MiB
KINMOZA! S01E04 - Aya, Nervous in the Rain.mkv 354.5 MiB
KINMOZA! S01E05 - Together with Onee-chan.mkv 355.9 MiB
KINMOZA! S01E06 - Golden Alice, Golden Karen.mkv 354.6 MiB
KINMOZA! S01E07 - Hungry Karen.mkv 357.1 MiB
KINMOZA! S01E08 - What Day is Today.mkv 355.4 MiB
KINMOZA! S01E09 - Who Isn't Sleeping.mkv 350.3 MiB
KINMOZA! S01E10 - The Wonderful Five.mkv 353.9 MiB
KINMOZA! S01E11 - Try Guessing How Much I Like You.mkv 352.1 MiB
KINMOZA! S01E12 - Golden Moment.mkv 350.7 MiB
KINMOZA! S02E01 - Spring Is Here.mkv 360.4 MiB
KINMOZA! S02E02 - Present For You.mkv 356.8 MiB
KINMOZA! S02E03 - You're So Bright.mkv 357.6 MiB
KINMOZA! S02E04 - Rain or Shine.mkv 357.6 MiB
KINMOZA! S02E05 - Come Play with Your Big Sister.mkv 355.2 MiB
KINMOZA! S02E06 - The Girl on My Mind.mkv 357.6 MiB
KINMOZA! S02E07 - My Dear Hero.mkv 358.1 MiB
KINMOZA! S02E08 - Almost Summer Vacation.mkv 357.9 MiB
KINMOZA! S02E09 - A Special Day.mkv 355.6 MiB
KINMOZA! S02E10 - Seaside Promise.mkv 356.4 MiB
KINMOZA! S02E11 - A Long Night.mkv 358.2 MiB
KINMOZA! S02E12 - Because I Love You More Than Anything.mkv 345.0 MiB

Comments

No user comments have been posted.

Submit a comment as Anonymous

Markdown can be used in comments.