[torrenter69] Eromanga Sensei S01 [1080p x264] [CR-DL] [MKV] [Multiple Subtitle]


Category: Anime - English-translated
Uploaded by:
Website Link: N/A
Hash: 0155cdf92e6ca8a88b315de0e2b55169515aeb0e
Size: 4.0 GiB
Torrent language: English English Spanish Spanish Portuguese Portuguese
Video Quality: 1080p
Date: 5/2/2019, 2:06:08 AM UTC+0
Seeders: 1
Leechers: 1
Completed: 69
Last scraped: 8/24/2019, 11:26:19 PM UTC+0

Description

Video
ID : 1
Format : AVC
Format/Info : Advanced Video Codec
Format profile : High@L4
Format settings : CABAC / 1 Ref Frames
Format settings, CABAC : Yes
Format settings, ReFrames : 1 frame
Codec ID : V_MPEG4/ISO/AVC
Duration : 23 min 35 s
Bit rate mode : Variable
Bit rate : 1 881 kb/s
Maximum bit rate : 6 000 kb/s
Width : 1 920 pixels
Height : 1 080 pixels
Display aspect ratio : 16:9
Frame rate mode : Constant
Frame rate : 23.976 (24000/1001) FPS
Color space : YUV
Chroma subsampling : 4:2:0
Bit depth : 8 bits
Scan type : Progressive
Bits/(Pixel*Frame) : 0.038
Stream size : 317 MiB (92%)
Writing library : Lavc58.52.100 h264_nvenc
Default : Yes
Forced : No

Audio
ID : 2
Format : Vorbis
Format settings, Floor : 1
Codec ID : A_VORBIS
Duration : 23 min 35 s
Bit rate mode : Variable
Bit rate : 112 kb/s
Channel(s) : 2 channels
Sampling rate : 44.1 kHz
Compression mode : Lossy
Delay relative to video : -83 ms
Stream size : 18.9 MiB (6%)
Writing application : Lavc58.52.100
Writing library : libVorbis (Now 100% fewer shells) (20180316 (Now 100% fewer shells))
Default : Yes
Forced : No

Text #1
ID : 3
Format : ASS
Codec ID : S_TEXT/ASS
Codec ID/Info : Advanced Sub Station Alpha
Duration : 22 min 2 s
Compression mode : Lossless
Language : Portuguese
Default : No
Forced : No

Text #2
ID : 4
Format : ASS
Codec ID : S_TEXT/ASS
Codec ID/Info : Advanced Sub Station Alpha
Duration : 22 min 2 s
Compression mode : Lossless
Language : English
Default : No
Forced : No

Text #3
ID : 5
Format : ASS
Codec ID : S_TEXT/ASS
Codec ID/Info : Advanced Sub Station Alpha
Duration : 22 min 2 s
Compression mode : Lossless
Language : Spanish
Default : No
Forced : No

File Name Size
Eromanga Sensei S01E01 - My Little Sister, and the Sealed Room.mkv 345.3 MiB
Eromanga Sensei S01E02 - Class Rep with a Normie Life, and a Fearless Fairy.mkv 334.7 MiB
Eromanga Sensei S01E03 - Buck Naked Mansion and the Fallen Master.mkv 356.7 MiB
Eromanga Sensei S01E04 - Eromanga Sensei.mkv 346.1 MiB
Eromanga Sensei S01E05 - Let's Plan a Light-novel with your Little Sister.mkv 326.5 MiB
Eromanga Sensei S01E06 - Masamune Izumi and the Nemesis of Ten Million Copies.mkv 349.4 MiB
Eromanga Sensei S01E07 - Little Sister and the Most Interesting Novel in the World.mkv 340.6 MiB
Eromanga Sensei S01E08 - Dreaming Sagiri and Summer Fireworks.mkv 324.8 MiB
Eromanga Sensei S01E09 - Little Sister and the Fairy Island.mkv 358.2 MiB
Eromanga Sensei S01E10 - Masamune Izumi and the Younger Senpai.mkv 312.5 MiB
Eromanga Sensei S01E11 - How the Two Met and Future Siblings.mkv 329.6 MiB
Eromanga Sensei S01E12 - Eromanga Festival.mkv 343.0 MiB

Comments

No user comments have been posted.