Aria the Scarlet Ammo Season 2 (Aria the Scarlet Ammo AA) [1080p x264 AAC] [Funi-DL Eng Dub]


Category: Anime - English-translated
Uploaded by:
Website Link: N/A
Hash: 216728ff086f4c288840c76f88f66db821a87d77
Size: 13.0 GiB
Torrent language: English English
Related to Anidb ID: 10980
Video Quality: 1080p
Date: 5/1/2019, 3:16:08 AM UTC+0
Seeders: 1
Leechers: 1
Completed: 4
Last scraped: 8/15/2019, 1:35:50 PM UTC+0

Description

Video
ID : 1
Format : AVC
Format/Info : Advanced Video Codec
Format profile : High@L4
Format settings : CABAC / 4 Ref Frames
Format settings, CABAC : Yes
Format settings, ReFrames : 4 frames
Codec ID : avc1
Codec ID/Info : Advanced Video Coding
Duration : 24 min 8 s
Bit rate : 6 135 kb/s
Nominal bit rate : 6 500 kb/s
Width : 1 920 pixels
Height : 1 080 pixels
Display aspect ratio : 16:9
Frame rate mode : Variable
Frame rate : 23.976 (24000/1001) FPS
Minimum frame rate : 23.974 FPS
Maximum frame rate : 23.981 FPS
Color space : YUV
Chroma subsampling : 4:2:0
Bit depth : 8 bits
Scan type : Progressive
Bits/(Pixel*Frame) : 0.123
Stream size : 1.03 GiB (96%)
Writing library : x264 core 155 r2911 e33ca07
Encoding settings : cabac=1 / ref=1 / deblock=1:0:0 / analyse=0x3:0x113 / me=hex / subme=7 / psy=1 / psy_rd=1.00:0.00 / mixed_ref=0 / me_range=16 / chroma_me=1 / trellis=1 / 8x8dct=1 / cqm=0 / deadzone=21,11 / fast_pskip=1 / chroma_qp_offset=-2 / threads=24 / lookahead_threads=4 / sliced_threads=0 / nr=0 / decimate=1 / interlaced=0 / bluray_compat=0 / constrained_intra=0 / bframes=2 / b_pyramid=2 / b_adapt=1 / b_bias=0 / direct=1 / weightb=1 / open_gop=0 / weightp=2 / keyint=48 / keyint_min=4 / scenecut=40 / intra_refresh=0 / rc_lookahead=40 / rc=cbr / mbtree=1 / bitrate=6500 / ratetol=1.0 / qcomp=0.60 / qpmin=0 / qpmax=69 / qpstep=4 / vbv_maxrate=6500 / vbv_bufsize=19500 / nal_hrd=none / filler=0 / ip_ratio=1.40 / aq=1:1.00
Codec configuration box : avcC

Audio
ID : 2
Format : AAC LC
Format/Info : Advanced Audio Codec Low Complexity
Codec ID : mp4a-40-2
Duration : 24 min 8 s
Bit rate mode : Constant
Bit rate : 253 kb/s
Channel(s) : 2 channels
Channel layout : L R
Sampling rate : 48.0 kHz
Frame rate : 46.875 FPS (1024 SPF)
Compression mode : Lossy
Stream size : 43.7 MiB (4%)
Default : Yes
Alternate group : 1

File Name Size
Aria The Scarlet Ammo S2E01.mp4 1.1 GiB
Aria The Scarlet Ammo S2E02.mp4 1.1 GiB
Aria The Scarlet Ammo S2E03.mp4 1.1 GiB
Aria The Scarlet Ammo S2E04.mp4 1.1 GiB
Aria The Scarlet Ammo S2E05.mp4 1.1 GiB
Aria The Scarlet Ammo S2E06.mp4 1.1 GiB
Aria The Scarlet Ammo S2E07.mp4 1.1 GiB
Aria The Scarlet Ammo S2E08.mp4 1.1 GiB
Aria The Scarlet Ammo S2E09.mp4 1.1 GiB
Aria The Scarlet Ammo S2E10.mp4 1.1 GiB
Aria The Scarlet Ammo S2E11.mp4 1.1 GiB
Aria The Scarlet Ammo S2E12.mp4 1.1 GiB

Comments

No user comments have been posted.