KIZNAIVER Season 1 WEBDL-1080p [Eng Dub] [CR-DL] [x264] [MKV]


Category: Anime - English-translated
Uploaded by:
Website Link: N/A
Hash: 3790f99007efe41c04b05512a3bafd86036b5256
Size: 4.2 GiB
Torrent language: English English
Related to Anidb ID: 11692
Video Quality: 1080p
Date: 5/1/2019, 3:11:36 AM UTC+0
Seeders: 1
Leechers: 2
Completed: 45
Last scraped: 8/22/2019, 7:08:06 PM UTC+0

Description

Video
ID : 1
Format : AVC
Format/Info : Advanced Video Codec
Format profile : High@L4
Format settings : CABAC / 4 Ref Frames
Format settings, CABAC : Yes
Format settings, ReFrames : 4 frames
Codec ID : V_MPEG4/ISO/AVC
Duration : 24 min 0 s
Bit rate : 2 305 kb/s
Width : 1 920 pixels
Height : 1 080 pixels
Display aspect ratio : 16:9
Frame rate mode : Constant
Frame rate : 23.976 (24000/1001) FPS
Color space : YUV
Chroma subsampling : 4:2:0
Bit depth : 8 bits
Scan type : Progressive
Bits/(Pixel*Frame) : 0.046
Stream size : 396 MiB (93%)
Writing library : x264 core 157 r2970 5493be8
Encoding settings : cabac=1 / ref=3 / deblock=1:0:0 / analyse=0x3:0x113 / me=hex / subme=7 / psy=1 / psy_rd=1.00:0.00 / mixed_ref=1 / me_range=16 / chroma_me=1 / trellis=1 / 8x8dct=1 / cqm=0 / deadzone=21,11 / fast_pskip=1 / chroma_qp_offset=-2 / threads=18 / lookahead_threads=3 / sliced_threads=0 / nr=0 / decimate=1 / interlaced=0 / bluray_compat=0 / constrained_intra=0 / bframes=3 / b_pyramid=2 / b_adapt=1 / b_bias=0 / direct=1 / weightb=1 / open_gop=0 / weightp=2 / keyint=250 / keyint_min=23 / scenecut=40 / intra_refresh=0 / rc_lookahead=40 / rc=crf / mbtree=1 / crf=23.0 / qcomp=0.60 / qpmin=0 / qpmax=69 / qpstep=4 / ip_ratio=1.40 / aq=1:1.00
Default : Yes
Forced : No

Audio
ID : 2
Format : Vorbis
Format settings, Floor : 1
Codec ID : A_VORBIS
Duration : 24 min 0 s
Bit rate mode : Variable
Bit rate : 112 kb/s
Channel(s) : 2 channels
Sampling rate : 44.1 kHz
Compression mode : Lossy
Delay relative to video : -86 ms
Stream size : 19.2 MiB (5%)
Writing application : Lavc58.52.100
Writing library : libVorbis (Now 100% fewer shells) (20180316 (Now 100% fewer shells))
Default : Yes
Forced : No

File Name Size
KIZNAIVER S01E01 - Sometimes, a Bond Can Bloom from the First Day Eye Contact Is Made.mkv 423.5 MiB
KIZNAIVER S01E02 - If You Can Swallow a Bizarre Situation Like This So Easily, Two Buckets of Barium Shouldn't Be a Problem.mkv 375.0 MiB
KIZNAIVER S01E03 - Depending on How You Look At It, I Think We Could Get Through Anything... Right.mkv 390.2 MiB
KIZNAIVER S01E04 - Now That We're All Connected, Let's All Get to Know Each Other Better, 'Kay.mkv 351.8 MiB
KIZNAIVER S01E05 - Wahoo, It's a Training Camp! Let's Step in Deer Poop and Have Pillow Fights! Go, Go!.mkv 335.5 MiB
KIZNAIVER S01E06 - Nothing Good Comes From Being Around All of You.mkv 337.9 MiB
KIZNAIVER S01E07 - A Battle Touching Upon the Identity of the Pain that's Seven Times the Pain of One-Seventh of a Pain.mkv 338.3 MiB
KIZNAIVER S01E08 - Happy Times Don't Tend to Last Very Long.mkv 356.5 MiB
KIZNAIVER S01E09 - It's All Over... I Think.mkv 430.1 MiB
KIZNAIVER S01E10 - You Knew Very Well That Your Romantic Feelings Might Be Unrequited, Right.mkv 344.7 MiB
KIZNAIVER S01E11 - We Have To Contact Each Other And Confirm Our Feelings. Because We're Friends!.mkv 311.3 MiB
KIZNAIVER S01E12 - If The Kizna System Spread Throughout The World.mkv 304.1 MiB

Comments

No user comments have been posted.