[Yoake Mux] Kimi no Suizou wo Tabetai 劇場アニメ「君の膵臓をたべたい」 [BDRemux AVC 1080p DTS-HDMA_5.1]


Category: Anime - Raw
Uploaded by:
Website Link: https://relieftranslation.com/
Hash: bdb2b7e21645b86a4a8bd94660ffac7c78760a6f
Size: 30.7 GiB
Torrent language: Japanese Japanese
Video Quality: Bluray
Date: 4/5/2019, 5:31:06 PM UTC+0
Seeders: 3
Leechers: 1
Completed: 40
Last scraped: 7/15/2019, 5:25:22 PM UTC+0

Description

BDMV by U3-Project

Mediainfo
Format : Matroska
Format version : Version 4
File size : 30.7 GiB
Duration : 1 h 48 min
Overall bit rate mode : Variable
Overall bit rate : 40.5 Mb/s
Encoded date : UTC 2019-04-05 07:34:32
Writing application : mkvmerge v32.0.0 ('Astral Progressions') 64-bit
Writing library : libebml v1.3.7 + libmatroska v1.5.0

Video
ID : 1
Format : AVC
Format/Info : Advanced Video Codec
Format profile : High@L4.1
Format settings : CABAC / 4 Ref Frames
Format settings, CABAC : Yes
Format settings, ReFrames : 4 frames
Codec ID : V_MPEG4/ISO/AVC
Duration : 1 h 48 min
Bit rate mode : Variable
Bit rate : 31.6 Mb/s
Maximum bit rate : 33.0 Mb/s
Width : 1 920 pixels
Height : 1 080 pixels
Display aspect ratio : 16:9
Frame rate mode : Constant
Frame rate : 23.976 (24000/1001) FPS
Color space : YUV
Chroma subsampling : 4:2:0
Bit depth : 8 bits
Scan type : Progressive
Bits/(Pixel*Frame) : 0.636
Stream size : 24.0 GiB (78%)
Default : Yes
Forced : No

Audio #1
ID : 2
Format : PCM
Format settings : Little / Signed
Codec ID : A_PCM/INT/LIT
Duration : 1 h 48 min
Bit rate mode : Constant
Bit rate : 2 304 kb/s
Channel(s) : 2 channels
Sampling rate : 48.0 kHz
Frame rate : 200.000 FPS (240 SPF)
Bit depth : 24 bits
Stream size : 1.75 GiB (6%)
Language : Japanese
Default : Yes
Forced : No

Audio #2
ID : 3
Format : DTS XLL
Format/Info : Digital Theater Systems
Commercial name : DTS-HD Master Audio
Codec ID : A_DTS
Duration : 1 h 48 min
Bit rate mode : Variable
Bit rate : 3 437 kb/s
Channel(s) : 6 channels
Channel layout : C L R Ls Rs LFE
Sampling rate : 48.0 kHz
Frame rate : 93.750 FPS (512 SPF)
Bit depth : 24 bits
Compression mode : Lossless
Stream size : 2.61 GiB (8%)
Language : Japanese
Default : No
Forced : No

Audio #3
ID : 4
Format : PCM
Format settings : Little / Signed
Codec ID : A_PCM/INT/LIT
Duration : 1 h 48 min
Bit rate mode : Constant
Bit rate : 1 536 kb/s
Channel(s) : 2 channels
Sampling rate : 48.0 kHz
Frame rate : 200.000 FPS (240 SPF)
Bit depth : 16 bits
Stream size : 1.17 GiB (4%)
Language : Japanese
Default : No
Forced : No

Audio #4
ID : 5
Format : PCM
Format settings : Little / Signed
Codec ID : A_PCM/INT/LIT
Duration : 1 h 48 min
Bit rate mode : Constant
Bit rate : 1 536 kb/s
Channel(s) : 2 channels
Sampling rate : 48.0 kHz
Frame rate : 200.000 FPS (240 SPF)
Bit depth : 16 bits
Stream size : 1.17 GiB (4%)
Language : Japanese
Default : No
Forced : No

Text
ID : 6
Format : PGS
Muxing mode : zlib
Codec ID : S_HDMV/PGS
Codec ID/Info : Picture based subtitle format used on BDs/HD-DVDs
Duration : 1 h 48 min
Bit rate : 34.6 kb/s
Count of elements : 3062
Stream size : 26.8 MiB (0%)
Language : Japanese
Default : Yes
Forced : No

Menu
00:00:00.000 : :Chapter 01
00:04:44.450 : :Chapter 02
00:09:26.315 : :Chapter 03
00:19:27.207 : :Chapter 04
00:25:22.312 : :Chapter 05
00:30:12.227 : :Chapter 06
00:46:56.897 : :Chapter 07
01:01:06.037 : :Chapter 08
01:09:08.018 : :Chapter 09
01:13:38.914 : :Chapter 10
01:20:15.685 : :Chapter 11
01:27:23.780 : :Chapter 12
01:37:06.987 : :Chapter 13
01:41:41.428 : :Chapter 14
01:46:11.740 : :Chapter 15

alt text

English trailer
IMAGE ALT TEXT HERE

Comments

No user comments have been posted.