Lupin III: Babylon no Ougon Densetsu | The Legend of the Gold of Babylon (DVD) [M74]


Category: Anime - English-translated
Uploaded by: れんちょん
Website Link: http://bakabt.me/torrent/347857/lupin-iii-babylon-no-ougon-densetsu-the-legend-of-the-gold-of-babylon-dvd-m74
Hash: 09B4EA567D85EB70B5AC167BE0E9D4571FD2EC7C
Size: Unknown
Torrent language: English English
Related to Anidb ID: 989
Video Quality: 480p
Date: 2/17/2019, 6:10:11 PM UTC+0
Seeders: 1
Leechers: 2
Completed: 4
Last scraped: 5/16/2019, 10:22:09 AM UTC+0

Description

rGXZS1.jpg


Description:

Group: M74
Video: H264, 720x460 (anam. 1.85:1), 23.976 fps (2731 kBit/s), 10-bit
Audio: English & Japanese, 2.0 & 5.1 AC3 (224 kBit/s)
Subtitles: English soft styled subs, song/signs track included (ASS) (source: Discotek release, edited)
Comments: Discotek DVD source, with a new English dub.
Synopsis

Following a very public chase with Zenigata in New York City, Lupin meets up with an old acquaintance, Rosetta. She tells him that before the Persians destroyed the city of Babylon, a God appeared and hid away all the riches. However before she can tell him more they are disturbed by armed Mafia goons and Rosetta makes her escape, leaving Lupin with an old candelabra. Meanwhile, Marciano, the son of a mafia boss-turned treasure hunter, is also searching for the gold. Now Lupin must not only track down the treasure, but he must also avoid being killed by Marciano’s men - all whilst trying to evade the persistent Zenigata who now has a secret weapon: a team of beautiful female ICPO officers! Source: A-P


Mediainfo:

General
Complete name : /mnt/4TB/[M74] Lupin III - The Legend of the Gold of Babylon (DVD) [9FFEB2AC].mkv
Format : Matroska
Format version : Version 4
File size : 2.24 GiB
Duration : 1 h 39 min
Overall bit rate : 3 203 kb/s
Encoded date : UTC 2019-01-06 09:16:11
Writing application : mkvmerge v18.0.0 ('Apricity') 64-bit
Writing library : libebml v1.3.5 + libmatroska v1.4.8
Attachments : 6f6302c42b3a56ea16673d5302cd36ce.otf / A-OTF-GothicMB101Pr5-Heavy.otf / AurulentSans-Bold.otf / AurulentSans-BoldItalic.otf / BOOKOSB.TTF / BOOKOSBI.TTF / DFPMaruGothic-W6-Kami_0.ttf / quaysansmditctt.ttf / quaysansmditctt-italic.ttf

Video
ID : 1
Format : AVC
Format/Info : Advanced Video Codec
Format profile : High 10@L4.1
Format settings : CABAC / 16 Ref Frames
Format settings, CABAC : Yes
Format settings, ReFrames : 16 frames
Codec ID : V_MPEG4/ISO/AVC
Duration : 1 h 39 min
Bit rate : 2 731 kb/s
Width : 720 pixels
Height : 460 pixels
Display aspect ratio : 1.902
Frame rate mode : Constant
Frame rate : 23.976 (24000/1001) FPS
Color space : YUV
Chroma subsampling : 4:2:0
Bit depth : 10 bits
Scan type : Progressive
Bits/(Pixel*Frame) : 0.344
Stream size : 1.91 GiB (85%)
Writing library : x264 core 157 r2935 545de2f

Encoding settings : cabac=1 / ref=16 / deblock=1:0:0 / analyse=0x3:0x133 / me=umh / subme=10 / psy=1 / psy_rd=0.80:0.00 / mixed_ref=1 / me_range=24 / chroma_me=1 / trellis=2 / 8x8dct=1 / cqm=0 / deadzone=21,11 / fast_pskip=1 / chroma_qp_offset=-2 / threads=12 / lookahead_threads=2 / sliced_threads=0 / nr=0 / decimate=1 / interlaced=0 / bluray_compat=0 / stitchable=1 / constrained_intra=0 / bframes=8 / b_pyramid=2 / b_adapt=2 / b_bias=0 / direct=3 / weightb=1 / open_gop=0 / weightp=2 / keyint=240 / keyint_min=23 / scenecut=40 / intra_refresh=0 / rc_lookahead=60 / rc=crf / mbtree=1 / crf=16.0 / qcomp=0.60 / qpmin=0 / qpmax=69 / qpstep=4 / vbv_maxrate=62500 / vbv_bufsize=78125 / crf_max=0.0 / nal_hrd=none / filler=0 / ip_ratio=1.40 / aq=1:1.00
Default : Yes
Forced : No

Audio #1
ID : 2
Format : AC-3
Format/Info : Audio Coding 3
Commercial name : Dolby Digital
Codec ID : A_AC3
Duration : 1 h 39 min
Bit rate mode : Constant
Bit rate : 224 kb/s
Channel(s) : 2 channels
Channel layout : L R
Sampling rate : 48.0 kHz
Frame rate : 31.250 FPS (1536 SPF)
Bit depth : 16 bits
Compression mode : Lossy
Stream size : 160 MiB (7%)
Language : English
Service kind : Complete Main
Default : No
Forced : No

Audio #2
ID : 3
Format : AC-3
Format/Info : Audio Coding 3
Commercial name : Dolby Digital
Codec ID : A_AC3
Duration : 1 h 39 min
Bit rate mode : Constant
Bit rate : 224 kb/s
Channel(s) : 6 channels
Channel layout : L R C LFE Ls Rs
Sampling rate : 48.0 kHz
Frame rate : 31.250 FPS (1536 SPF)
Bit depth : 16 bits
Compression mode : Lossy
Stream size : 160 MiB (7%)
Language : Japanese
Service kind : Complete Main
Default : Yes
Forced : No

Text #1
ID : 4
Format : ASS
Codec ID : S_TEXT/ASS
Codec ID/Info : Advanced Sub Station Alpha
Duration : 1 h 39 min
Bit rate : 72 b/s
Count of elements : 890
Compression mode : Lossless
Stream size : 53.0 KiB (0%)
Title : Full
Language : English
Default : Yes
Forced : No

Text #2
ID : 5
Format : ASS
Codec ID : S_TEXT/ASS
Codec ID/Info : Advanced Sub Station Alpha
Duration : 1 h 39 min
Bit rate : 9 b/s
Count of elements : 89
Compression mode : Lossless
Stream size : 6.94 KiB (0%)
Title : Song/Signs
Language : English
Default : No
Forced : No

Menu
00:00:00.000 : en:Chapter 01
00:02:53.000 : en:Chapter 02
00:07:57.400 : en:Chapter 03
00:14:39.967 : en:Chapter 04
00:22:21.936 : en:Chapter 05
00:30:15.670 : en:Chapter 06
00:34:21.205 : en:Chapter 07
00:40:05.605 : en:Chapter 08
00:44:08.172 : en:Chapter 09
00:47:02.506 : en:Chapter 10
00:52:50.241 : en:Chapter 11
00:55:39.908 : en:Chapter 12
01:02:49.642 : en:Chapter 13
01:06:11.876 : en:Chapter 14
01:07:49.678 : en:Chapter 15
01:13:07.945 : en:Chapter 16
01:14:41.512 : en:Chapter 17
01:18:01.179 : en:Chapter 18
01:22:19.679 : en:Chapter 19
01:23:44.180 : en:Chapter 20
01:26:09.514 : en:Chapter 21
01:30:52.748 : en:Chapter 22
01:35:08.215 : en:Chapter 23
01:38:11.315 : en:Chapter 24
01:39:50.315 : en:Chapter 25

Comments

No user comments have been posted.

Submit a comment as Anonymous

Markdown can be used in comments.